Printable Version of Topic

Click here to view this topic in its original format

Metal Area - Extreme Music Portal _ Low Bitrate _ Profecía - 1983-1986 (2022)

Posted by: Necrokilldozer Aug 17 2022, 17:33:58

http://metalarea.org/images/audiocovers/2022_Aug/acov_tid368369.jpg

*Artist: Profecía
*Album: 1983-1986
*Year: 2022
*Genre: Heavy/Doom Metal
*Country: Colombia
*Format: mp3@VBR258kbps
*Size: 98MB

Tracklist:
1. Overtura 04:24
2. Revolución 05:02
3. Sangre del olvido 03:26
4. Despierta 03:44
5. Reencarnación de la luna / Los maestros del fuego 06:37
6. Sigues en mí 04:28
7. Siempre 04:01
8. Porquería material 05:49
9. Magia negra 03:59
10. B-404 05:18
11. Tiempo de fuego 03:13
******************************
Total playing time: 50:01

Extended info
Line - up:

El Conde - Bass
Jorge - Drums
Nando (R.I.P. 1993) - Guitars (rhythm) (ex-Sacrilegio)
Ricardo Amaya - Guitars (lead)
Piolín - Vocals (Reencarnación, ex-HP.HC)


Technical info

Input File: 06-profecia-sigues_en_mi.mp3
Channels : 2
Sample Rate : 44100
Precision : 16-bit
Duration : 00:04:28.67 = 11848303 samples = 20150.2 CDDA sectors
File Size : 8.27M
Bit Rate : 246k
Sample Encoding: MPEG audio (layer I, II or III)
Comments :
Title=Sigues en Mi
Artist=Profecia
Album=1983-1986
Tracknumber=6
Year=2022-00-00
Genre=Heavy | Doom Metal



[ Hidden Text ]

Posted by: SatanMyMaster666 Apr 2 2024, 02:41:45

Please re-up this pray.gif


Powered by Invision Power Board
© Invision Power Services