Printable Version of Topic

Click here to view this topic in its original format

Metal Area - Extreme Music Portal _ Low Bitrate _ The Usurper - Of Fire And Soul [ep] (2024)

Posted by: komhs Feb 11 2024, 15:35:51

https://metalarea.org/images/audiocovers/2024_Feb/acov_tid392320.jpg

*Artist: The Usurper
*Album: Of Fire And Soul [ep]
*Year: 2024
*Genre: Thrash Metal
*Country: Greece
*Format: mp3@CBR320kbps
*Size: 41MB

Tracklist:
1.Fire Walk with Me
2.Through Meltic Plastic
3.Dead and Gone
4.Social Disorder
5.Born to Die
******************************
Total playing time: 17:56

https://theusurper.bandcamp.com/track/usurper-attack
https://open.spotify.com/artist/251qRhwXU9bwjBsb2VsTcI?si=O3KwrCPKSKOBNZaBjNrenQ&nd=1&dlsi=ef1bd530a8a14f7a
https://www.youtube.com/@TheUsurperThrash

Technical info

Input File: 1.Fire Walk with Me.mp3
Channels : 2
Sample Rate : 44100
Precision : 16-bit
Duration : 00:03:40.06 = 9704734 samples = 16504.6 CDDA sectors
File Size : 8.80M
Bit Rate : 320k
Sample Encoding: MPEG audio (layer I, II or III)
Comments :
Artist=The Usurper
Album=Of Fire and Soul
Year=2024
Genre=9



[ Hidden Text ]

Powered by Invision Power Board
© Invision Power Services