Printable Version of Topic

Click here to view this topic in its original format

Metal Area - Extreme Music Portal _ Low Bitrate _ Chainsaw - Satan (2024)

Posted by: komhs Feb 11 2024, 15:40:53

https://metalarea.org/images/audiocovers/2024_Feb/acov_tid392321.jpg

*Artist: https://metalarea.org/forum/index.php?showtopic=140958
*Album: Satan
*Year: 2024
*Genre: Black/Thrash Metal
*Country: Greece
*Format: mp3@CBR320kbps
*Size: 88MB

Tracklist:
1. Mentor of the Tormentor 03:18
2. Burn His Corpse 03:58
3. Boiling Cauldron 03:29
4. Death by 69 03:16
5. Cry Blood 04:16
6. Satan 04:32
7. Go for the Throat 04:11
8. Amok 01:45
9. The Dead Watch You 04:59
10. Full of Evil 05:17
******************************
Total playing time: 39:01

https://chainsawsixsix6.bandcamp.com/
https://www.youtube.com/channel/UCEEWB4oQe596oCGSxUf8gzg
https://www.facebook.com/Chainsawsixsix6/

Technical info

Input File: 01.Mentor Of The Tormentor.mp3
Channels : 2
Sample Rate : 44100
Precision : 16-bit
Duration : 00:03:18.15 = 8738195 samples = 14860.9 CDDA sectors
File Size : 7.93M
Bit Rate : 320k
Sample Encoding: MPEG audio (layer I, II or III)
Comments :
Artist=Chainsaw
Year=0
Genre=12



[ Hidden Text ]
[ Hidden Text ]

Posted by: Extreme Brutal Feb 13 2024, 18:14:19

Flac possible? Thanks

Posted by: Хогги Mar 2 2024, 19:00:48

Added links by AHBAnep

Powered by Invision Power Board
© Invision Power Services