Printable Version of Topic

Click here to view this topic in its original format

Metal Area - Extreme Music Portal _ Low Bitrate _ Embryonic Abnormality - Selexitintion [ep] (2022)

Posted by: Vismuth Apr 1 2024, 19:29:45

https://metalarea.org/images/audiocovers/2024_Apr/acov_tid394925.jpg

*Artist: Embryonic Abnormality
*Album: Selexitintion [ep]
*Year: 2022
*Genre: Slamming Brutal Death Metal
*Country: Italy
*Format: mp3@CBR320kbps
*Size: 21MB

Tracklist:
01. Frantic Cryogenic Breakout 03:47
02. Abducation Of Worthless Existance 03:09
03. Byotic Mass Extintion 02:29
******************************
Total playing time: 9:26

Technical info

Input File: 02. Abducation Of Worthless Existance.mp3
Channels : 2
Sample Rate : 44100
Precision : 16-bit
Duration : 00:03:09.66 = 8363962 samples = 14224.4 CDDA sectors
File Size : 7.71M
Bit Rate : 325k
Sample Encoding: MPEG audio (layer I, II or III)
Comments :
Title=Abducation Of Worthless Existance
Artist=Embryonic Abnormality
Album=Selexitintion (EP)
Tracknumber=02
Year=2022
Genre=Slamming Brutal Death Metal



[ Hidden Text ]

Powered by Invision Power Board
© Invision Power Services