Printable Version of Topic

Click here to view this topic in its original format

Metal Area - Extreme Music Portal _ Unformat R: _ Chelsea Wolfe - Ἀποκάλυψις (2011)

Posted by: Vorgr Jul 19 2012, 11:00:56

http://metalarea.org/images/audiocovers/2012_Jul/acov_tid177772.jpg

*Artist: Chelsea Wolfe
*Album: Ἀποκάλυψις
*Year: 2011
*Genre: Doom/Folk/Experimental
*Country: United States
*Format: mp3@CBR320kbps
*Size: 103MB

Tracklist:
01.Primal // Carnal 0:27
02. Mer 3:42
03. Tracks (Tall Bodies) 3:57
04. Demons 3:13
05. Movie Screen 5:35
06. The Wasteland 4:02
07. Moses 4:03
08. Friedrichshain 2:43
09. Pale On Pale 6:54
10.To The Forest, Towards The Sea 2:43
******************************
Total playing time: 37:19

Extended info



Input File: 02 mer.mp3
Channels : 2
Sample Rate : 44100
Precision : 16-bit
Duration : 00:03:44.52 = 9901332 samples = 16839 CDDA sectors
File Size : 10.3M
Bit Rate : 366k
Sample Encoding: MPEG audio (layer I, II or III)
Comments :
Title=Mer
Artist=Chelsea Wolfe
Album=бј€ПЂОїОєО¬О»П…П€О№П‚
Tracknumber=2/10
Genre=Alternative



[ Hidden Text ]

Posted by: Algis Jul 20 2012, 06:49:12

Дум есть, "экспериментал" есть, а фолка нету. У мариканцев любое любительское, не академическое пение проходит по разряду фолка.
В целом неплохо тётенька голосит и музыка неплоха.

Powered by Invision Power Board
© Invision Power Services