Printable Version of Topic

Click here to view this topic in its original format

Metal Area - Extreme Music Portal _ Unformat R: _ Silver Star - Europa (2008)

Posted by: Tiamtu Jul 19 2012, 19:01:16

http://metalarea.org/images/audiocovers/2012_Jul/acov_tid177806.jpg

*Artist: Silver Star
*Album: Europa
*Year: 2008
*Genre: Dark Ambient
*Country: Russian Federation
*Format: mp3@CBR320kbps
*Size: 79MB

Tracklist:
1.Crying Of The Europe
2.Immersing In The Chasm Of Nonexistence
3.Germany
4.Port Of Northern Norway
5.Dark Clouds Of Dresden
6.Budapest
******************************
Total playing time: 37:50

Extended info



Input File: 06 Budapest.mp3
Channels : 2
Sample Rate : 44100
Precision : 16-bit
Duration : 00:03:20.07 = 8823131 samples = 15005.3 CDDA sectors
File Size : 8.01M
Bit Rate : 320k
Sample Encoding: MPEG audio (layer I, II or III)
Comments :
Title=Budapest
Artist=Silver Star
Album=Europa
Tracknumber=6/6
Year=2007
Genre=Ambient



[ Hidden Text ]

Powered by Invision Power Board
© Invision Power Services