Printable Version of Topic

Click here to view this topic in its original format

Metal Area - Extreme Music Portal _ Unformat R: _ Deviant - 21th Century Deities [ep] (1991)

Posted by: amebix May 4 2015, 20:56:19

http://metalarea.org/images/audiocovers/2015_May/acov_tid244670.jpg

*Artist: Deviant
*Album: 21th Century Deities [ep]
*Year: 1991
*Genre: Funk Metal
*Country: United Kingdom
*Format: mp3@CBR320kbps
*Size: 23MB

Tracklist:
01. In Pursuit Of Happiness 03:20
02. Masquerade 02:34
03. Say It To My Face 04:15
******************************
Total playing time: 10:09

Technical info

Input File: 01 - In Pursuit Of Happiness.mp3
Channels : 2
Sample Rate : 44100
Precision : 16-bit
Duration : 00:03:20.99 = 8863571 samples = 15074.1 CDDA sectors
File Size : 8.04M
Bit Rate : 320k
Sample Encoding: MPEG audio (layer I, II or III)
Comments :
Title=In Pursuit Of Happiness
Artist=DEVIANT
Album=21th Century Deities /EP/
Tracknumber=1
Year=1991



[ Hidden Text ]

Posted by: Селезнёв Aug 7 2019, 18:32:09

Есть у кого возможность перезалить?

Powered by Invision Power Board
© Invision Power Services