Printable Version of Topic

Click here to view this topic in its original format

Metal Area - Extreme Music Portal _ Unformat R: _ Sardanapalm Death - Διαμόρφωση συνείδησης (2016)

Posted by: KINO Mar 29 2016, 10:17:42

https://metalarea.org/images/audiocovers/2016_Mar/acov_tid264861.jpg

*Artist: Sardanapalm Death
*Album: Διαμόρφωση συνείδησης
*Year: 2016
*Genre: Crust/Hardcore Punk
*Country: Greece
*Format: mp3@CBR320kbps
*Size: 51MB

Tracklist:
1. Σίδερο και τσιμέντο 02:23
2. Σινιάλο υποκρισίας 02:05
3. Παλαιστίνη 02:34
4. Απάθεια 02:59
5. Πνευματικός μαρασμός 02:20
6. Ψηφιακός ιστός 02:00
7. Γυαλί στάζει η ματιά μας 02:28
8. Τρομοϋστέρηση 02:22
******************************
Total playing time: 19:11

https://sardanapalmdeath.bandcamp.com/album/--2

Technical info

Input File: Sardanapalm Death - ?????????? ?????????? - 01 ?????? ??? ????????.mp3
Channels : 2
Sample Rate : 44100
Precision : 16-bit
Duration : 00:02:23.79 = 6341183 samples = 10784.3 CDDA sectors
File Size : 5.92M
Bit Rate : 329k
Sample Encoding: MPEG audio (layer I, II or III)
Comments :
Title=ОЈОЇОґОµПЃОї ОєО±О№ П„ПѓО№ОјО­ОЅП„Ої
Artist=Sardanapalm Death
Album=О”О№О±ОјПЊПЃП†П‰ПѓО· ПѓП…ОЅОµОЇОґО·ПѓО·П‚
Tracknumber=1
Year=2016



[ Hidden Text ]

Powered by Invision Power Board
© Invision Power Services