Printable Version of Topic

Click here to view this topic in its original format

Metal Area - Extreme Music Portal _ Unformat R: _ Pragnavit - Skarby Zmiainaha Karala (2016)

Posted by: Абигор Jul 31 2016, 17:29:52

http://metalarea.org/images/audiocovers/2016_Jul/acov_tid271555.jpg

*Artist: Pragnavit
*Album: Skarby Zmiainaha Karala
*Year: 2016
*Genre: Pagan Ambient/Ethnic Darkwave
*Country: Belarus
*Format: mp3@CBR320kbps
*Size: 184MB

Tracklist:
1. Suchavieja 03:21
2. Zamknionyja Koŭraty Jaryły 03:13
3. Rasčynieńnie Bramy Niabiosaŭ 05:13
4. Visažar Zornych Nietraŭ 08:00
5. Zmiainy Ŭładar 05:54
6. U Imrasi 05:47
7. Dzury 12:14
8. Dziadoŭskaje Sonca 06:43
9. Zier Viatocha 05:23
10. Suła 07:31
11. Marmytańnie Rassochi 03:39
12. Skirty Chałodnic 04:09
13. Achviarnaja Kroŭ Stodu Viečnaści 05:17
******************************
Total playing time: 1:16:24

https://possessionproductions.bandcamp.com/album/skarby-zmiainaha-karala-treasures-of-the-serpent-king
https://soundcloud.com/crivia/sets/pragnavit-skarby-zmiainaha-karala

Extended info
CD-Rip. Эксклюзивно для портала!

Crivia Records – RITUAL06

Limited to 450 copies + 50 copies in wooden box. Digibook with 16-pages booklet.


Technical info

Input File: 05 - Zmiainy ??adar.mp3
Channels : 2
Sample Rate : 44100
Precision : 16-bit
Duration : 00:05:53.98 = 15610694 samples = 26548.8 CDDA sectors
File Size : 14.2M
Bit Rate : 320k
Sample Encoding: MPEG audio (layer I, II or III)
Comments :
Title=Zmiainy Е¬Е‚adar
Artist=Pragnavit
Album=Skarby Zmiainaha Karala
Tracknumber=05/13
Year=2016
Genre=Ambient



[ Hidden Text ]

Posted by: Urmaaas Jul 31 2016, 19:54:25

Спасибо, очень добротно. Может даже до заказа CD дозрею.

Posted by: templ Jul 31 2016, 20:11:08

Pragnavit

Posted by: kakha_k Jul 31 2016, 21:55:28

Приятная музыка.
Это такой стиль, что если группа его соблюдает, невозможно откровенно плохо сочинять.

А данная конкретная работа, действительно, приятная, то есть стоящая. Мне рекомендовали эту вещь послушать и скажу честно, не разочарован совсем. Спасибо.

Posted by: recber Aug 1 2016, 07:22:50

Вот это круто, надо диск покупать bye.gif

Posted by: Fess Aug 1 2016, 11:38:32

Красивая музыка. 20.gif Словно улетаешь в те далёкие и ушедшие времена... Я услышал в этом релизе, всё то, что родное для меня. Звуки леса, пение птиц, шёпот воды, дыхание ветра...

Posted by: Sarcis Aug 1 2016, 11:41:50

Очень пришлось по нраву, но дебют не переплюнули.

Posted by: Nomad Aug 1 2016, 16:33:08

По такой фотке веселых "тетенек с дудками" и развеселым дядей и не скажешь что тебя ждет мрачное и грузящее "ритуальное" музыще 13.gif

Posted by: garmonbozia Aug 1 2016, 16:58:55

не по душе такие сказки.

Posted by: Qliphoth Aug 1 2016, 17:32:42

Великолепный релиз. Зря фото выложили, мне было бы еще лучше без оного :-)

Posted by: Moyshe_Ukrainec Aug 1 2016, 17:46:48

это должно быть интересно!!

Posted by: SAPOGi Aug 5 2016, 12:12:52

Отличная штука!.

Posted by: Sarcis Aug 10 2016, 20:37:45

Треки №2, 8, да и вообще вторая половина альбома - просто шикарны и в лишних описаниях не нуждаются. Несколько пересмотрел своё отношение - не то, чтобы этот альбом лучше или хуже первого, но они оба великолепны, отличны друг от друга и каждый из них по своему хорош. Скажем так, передают разное настроение. Этот альбом, так или иначе, катит на твёрдую пятерочку.

Posted by: smes Jan 10 2021, 00:19:54

в этом альбоме сочетание не прошлой работы, а определено нового взгляда на происходящее. я поражен данным творением, как и предыдущей работой. непонятно как проект черпает эти звуки души, по видимому они действительно гениальны в этом, но такое воссоздать в нуля крайне сложно.
слушаю ежегодно с момента выхода данного шедевра на зимнее солнцестояние и постоянно поражаюсь уникальности этой работы

Powered by Invision Power Board
© Invision Power Services