Printable Version of Topic

Click here to view this topic in its original format

Metal Area - Extreme Music Portal _ Unformat R: _ Glittertind - Himmelfall (2017)

Posted by: aesteticvice Oct 26 2017, 17:01:34

https://metalarea.org/images/audiocovers/2017_Oct/acov_tid296737.jpg

*Artist: https://metalarea.org/forum/index.php?showtopic=2211
*Album: Himmelfall
*Year: 2017
*Genre: Viking/Folk Rock
*Country: Norway
*Format: mp3@CBR320kbps
*Size: 93MB

Tracklist:
01. Olav Engelbrektsson 04:56
02. Etter stormen 04:29
03. Likvake 04:22
04. Finst ikkje meir 03:52
05. Himmelfall 02:02
06. I djupet lokkar ein eld 04:09
07. Forføraren 03:52
08. Tvilar på alt 03:54
09. Ein feste Burg ist unser Gott 03:23
10. Utferd 03:59
******************************
Total playing time: 38:58

https://www.facebook.com/glittertindofficial/

Extended info
Torbjørn Sandvik - Vocals, Guitars, Bass, Drums, Keyboards (2001-present)
Geirmund Simonsen - Guitars, Bass, Drums, Accordion, Organs, Vocals, Programming (2008-present)
Bjørn Nordstoga - Bass (2010-present)
Geir Holm Drums (2010-present)
Stefan Theofilakis - Flute, Vocals (2010-present)
Olav Aasbø - Guitars, Vocals (2010-present)
Guest:
Eivind Nordset Lønning - Trumpet
Ingrid Mæland - Violin
Petter Richter - Lute, Guitars
Eivind Almhjell - Guitars, Guitars (acoustic)


Technical info

Input File: 2 Etter stormen.mp3
Channels : 2
Sample Rate : 44100
Precision : 16-bit
Duration : 00:04:29.50 = 11885126 samples = 20212.8 CDDA sectors
File Size : 11.1M
Bit Rate : 330k
Sample Encoding: MPEG audio (layer I, II or III)
Comments :
Title=Etter stormen
Artist=Glittertind
Album=Himmelfall
Tracknumber=2/10
Year=2017
Discnumber=1/1



[ Hidden Text ]

Posted by: AndreasS Feb 13 2018, 22:31:41

lossless? 9.gif

Posted by: zyklon Feb 14 2018, 00:14:49

помню дебютник зачётный был, особенно пейсня норвежских партизан - красно сине белый... чую сейчас будет соплежуйство, судя по тому что происходило после этого

Posted by: smes Dec 12 2020, 19:30:56

обновить

Posted by: MadCarrot Feb 21 2022, 20:02:58

Можно новую ссылку?
Спасибо

Powered by Invision Power Board
© Invision Power Services