Printable Version of Topic

Click here to view this topic in its original format

Metal Area - Extreme Music Portal _ Unformat R: _ Totem Skin - Weltschmerz (2015)

Posted by: Black Cat Feb 26 2018, 22:21:39

https://metalarea.org/images/audiocovers/2018_Feb/acov_tid302577.jpg

*Artist: Totem Skin
*Album: Weltschmerz
*Year: 2015
*Genre: Screamo/Hardcore/Crust Punk
*Country: Sweden
*Format: mp3@CBR320kbps
*Size: 77MB

Tracklist:
01. always ire
02. longing leans and beckon
03. reckless recluse
04. the mouth of man
05. pretend
06. distant visitant
07. de blindas rike är den enögde kung
******************************
Total playing time: 34:00

Technical info

Input File: 02 - Longing Leans And Beckon.mp3
Channels : 2
Sample Rate : 44100
Precision : 16-bit
Duration : 00:03:00.81 = 7973853 samples = 13561 CDDA sectors
File Size : 7.28M
Bit Rate : 322k
Sample Encoding: MPEG audio (layer I, II or III)
Comments :
Title=Longing Leans And Beckon
Artist=Totem Skin
Album=Weltschmerz
Tracknumber=02
Year=2015
Genre=Screamo/Hardcore/Crust Punk



[ Hidden Text ]

Posted by: popen13 Feb 27 2018, 08:32:06

https://totemskin.bandcamp.com/album/weltschmerz

Posted by: Ghostb Feb 27 2018, 12:24:50

Обложку лидер Baroness рисовал, судя по всему)

Posted by: Evgundel Oct 19 2018, 19:14:25

newer links (320): [ Hidden Text ]

Powered by Invision Power Board
© Invision Power Services