Printable Version of Topic

Click here to view this topic in its original format

Metal Area - Extreme Music Portal _ Unformat R: _ Camel - The Snow Goose (1975)

Posted by: Нигилист Jun 21 2018, 18:00:39

http://metalarea.org/images/audiocovers/2018_Jun/acov_tid307395.jpg

*Artist: Camel
*Album: The Snow Goose
*Year: 1975
*Genre: Progressive Rock
*Country: United Kingdom
*Format: mp3@CBR320kbps
*Size: 231MB

Tracklist:
Disc One
1. The Great Marsh 2:04
2. Rhayader 3:02
3. Rhayader Goes to Town 5:20
4. Sanctuary 1:05
5. Fritha 1:19
6. The Snow Goose 3:12
7. Friendship 1:44
8. Migration 2:01
9. Rhayader Alone 1:50
10. Flight of the Snow Goose 2:41
11. Preparation 3:54
12. Dunkirk 5:25
13. Epitaph 2:07
14. Fritha Alone 1:30
15. La Princesse Perdue 4:56
16. The Great Marsh 1:15
17. Flight of the Snow Goose (Instrumental Single Edit) [bonus track] 2:05
18. Rhayader (Instrumental Single Edit) [bonus track] 3:11
19. Rhayader Goes to Town (Live At The Marquee, Instrumental Version) [bonus track] 5:07
20. The Snow Goose / Freefall (Live At The Marquee, Instrumental Version) [bonus track] 11:02

Disc Two: Recorded Live for BBC Radio One "In Concert" 1975
1. Rhayader Goes to Town 5:08
2. Sanctuary 1:12
3. The Snow Goose 3:03
4. Migration 3:31
5. Rhayader Alone 1:43
6. Flight of the Snow Goose 2:56
7. Preparation 2:04
8. Dunkirk 5:10
9. Epitaph 1:16
10. La Princesse Perdue 4:40
11. The Great Marsh 1:57
12. Selections from "The Snow Goose" (From BBC 2 "The Old Grey Whistle Test" 1975) 9:39
a. The Snow Goose
b. Friendship
c. Rhayader Goes to Town
******************************
Total playing time: 1:47:09

https://www.youtube.com/watch?v=ru8bH9XXTfk

Extended info
2009 Remastered, Deluxe Edition
Line-up / Musicians
- Andy Latimer / electric, acoustic & slide guitars, flute, wordless vocals (8,11)
- Peter Bardens / organ & pipe organ, Minimoog & ARP Odyssey synths, acoustic & electric pianos
- Doug Ferguson / bass, duffle coat (13) $
- Andy Ward / drums, Varispeed percussion, vibes

With:
- David Bedford / orchestral arranger & conductor
- The London Symphony Orchestra


Technical info

Input File: 02. Rhayader.mp3
Channels : 2
Sample Rate : 44100
Precision : 16-bit
Duration : 00:03:02.22 = 8035682 samples = 13666.1 CDDA sectors
File Size : 7.29M
Bit Rate : 320k
Sample Encoding: MPEG audio (layer I, II or III)
Comments :
Title=Rhayader
Artist=Camel
Album=1975 - The Snow Goose (2009 Remastered)
Tracknumber=2
Year=1975
Genre=92



[ Hidden Text ]

Posted by: vosmidesijatye Jun 21 2018, 20:06:11

Блин, ну и где Роман paganheart?

Очень было бы интересно почитать его мнения о альбомах сего коллектива.

9.gif

Posted by: todesser Jun 22 2018, 13:42:00

Лучший альбом Camel наряду с Stationary Traveller

Posted by: Ghostb Jun 22 2018, 18:24:11

ЦИТАТА(todesser @ Jun 22 2018, 15:42:00) *
Лучший альбом Camel наряду с Stationary Traveller

У меня в фаворитах весь период 73-77 и 84-02 гг., в середине все же не настолько яркие работы были, на мой взгляд, хотя жемчужины можно найти на любом их альбоме. Редкая прог-рок группа 70-ых, у которой позднее творчество ничем не уступает классическому (а в чем-то, например, в качестве записи даже выигрывает). Одни из любимцев в проге того времени, а Латимер - едва ли не эталон соло-гитариста для меня (кстати, лидер Opeth со мной согласен 1488.gif).

Posted by: BrutalHero Jun 22 2018, 20:38:50

очень крутая группа, даже удивлен. что её тут зарелизили.

Posted by: Snowblind Jun 22 2018, 20:48:44

Да, хароший кентерберри.

Posted by: Ghostb Jun 22 2018, 20:59:07

ЦИТАТА(Snowblind @ Jun 22 2018, 22:48:44) *
кентерберри

Вообще-то нет.

Posted by: Snowblind Jun 22 2018, 21:34:07

Точно, с Каравансарем перепутал. У этих мне Стейшенери тревелер больше всего нраицца.

Posted by: Ghostb Jun 22 2018, 23:11:22

ЦИТАТА(Snowblind @ Jun 22 2018, 23:34:07) *
У этих мне Стейшенери тревелер больше всего нраицца

Да, тоже всегда был одним из любимых. https://www.youtube.com/watch?v=uPlBvgsjlic просто гениальна 20.gif

Posted by: babanguida Jun 23 2018, 07:09:01

back to kick you ass!


Posted by: Ghostb Jun 23 2018, 21:06:17

ЦИТАТА(babanguida @ Jun 23 2018, 09:09:01) *
back to kick you ass!

Да, клавишник у них адовый сейчас 1488.gif

Posted by: paganheart Jun 24 2018, 07:24:03

ЦИТАТА(babanguida @ Jun 23 2018, 09:09:01) *
back to kick you ass!

https://www.udiscovermusic.com/wp-content/uploads/2017/10/Camel.jpg

Такое впечатление, что Энди яблоки молодильные употребляет в промышленных масштабах. 1488.gif
ЦИТАТА
Да, тоже всегда был одним из любимых. Одноименная инструменталка просто гениальна 20.gif

Тоже любимейший альбом,хотя в фаворитах, пожалуй, будет нуаристая Vopos - партии баса тут такие стонуще-плачущие, цепляют за живое.

Powered by Invision Power Board
© Invision Power Services