Printable Version of Topic

Click here to view this topic in its original format

Metal Area - Extreme Music Portal _ Unformat R: _ DisasterTheory - Dying Side Of Life (2019)

Posted by: necroscum May 17 2019, 14:05:27

https://metalarea.org/images/audiocovers/2019_May/acov_tid321988.jpg

*Artist: DisasterTheory
*Album: Dying Side Of Life
*Year: 2019
*Genre: Alternative Metal
*Country: United States
*Format: mp3@CBR320kbps
*Size: 117MB

Tracklist:
01. Freak Show (Intro)
02. Dying Side Of Life
03. Black Star
04. I’m Your God
05. Stuck In The Middle
06. Get Away
07. When It Turns On You
08. Hyperdrive
09. Let It Rain
10. Never Return
11. Turn This World Around
12. I’ve Fallen Down
13. Patchwork Psychopath
******************************
Total playing time: 50:56

https://www.facebook.com/DisasterTheoryOfficial/

Technical info

Input File: 02. Dying Side Of Life.mp3
Channels : 2
Sample Rate : 44100
Precision : 16-bit
Duration : 00:03:18.68 = 8761568 samples = 14900.6 CDDA sectors
File Size : 8.49M
Bit Rate : 342k
Sample Encoding: MPEG audio (layer I, II or III)
Comments :
Title=Dying Side Of Life
Artist=DisasterTheory
Album=Dying Side Of Life
Tracknumber=2/13
Year=2019



[ Hidden Text ]

Posted by: AHBAnep May 17 2019, 15:13:21


Прогрессивная альтернатива вульгарис.

Posted by: Yarri May 22 2019, 17:42:51

Прогрессива не услышал. Alternative Metalcore.

Powered by Invision Power Board
© Invision Power Services