Printable Version of Topic

Click here to view this topic in its original format

Metal Area - Extreme Music Portal _ Unformat R: _ Diamond Head - The Coffin Train (2019)

Posted by: Necrokilldozer May 24 2019, 15:15:19

http://metalarea.org/images/audiocovers/2019_May/acov_tid322229.jpg

*Artist: http://metalarea.org/forum/index.php?showtopic=88312
*Album: The Coffin Train
*Year: 2019
*Genre: Hard Rock
*Country: United Kingdom
*Format: mp3@CBR320kbps
*Size: 117MB

Tracklist:
1. Belly of the Beast 04:34
2. The Messenger 05:16
3. The Coffin Train 06:11
4. Shades of Black 04:40
5. The Sleeper (Prelude) 00:59
6. The Sleeper 05:45
7. Death by Design 04:44
8. Serrated Love 06:20
9. The Phoenix 05:39
10. Until We Burn 05:57
******************************
Total playing time: 50:05

https://www.youtube.com/user/rkwdiamondhead/videos
https://myspace.com/diamondhead/music/songs
https://www.reverbnation.com/diamondhead/songs
https://diamondhead.bandcamp.com/

Extended info
Line - up:

Brian Tatler - Guitars (lead) (Quill, Radio Moscow)
Karl Wilcox - Drums (ex-Requiem, ex-Rekuiem, ex-Chase, ex-Johnny Young Band, ex-Radio Moscow)
Andy "Abbz" Abberley - Guitars (rhythm)
Rasmus Bom Andersen - Vocals
Dean Ashton - Bass (Alunah)

https://www.metal-archives.com/images/4/0/1/401_photo.jpg?5604


Technical info

Input File: 04. Shades of Black.mp3
Channels : 2
Sample Rate : 44100
Precision : 16-bit
Duration : 00:04:39.08 = 12307604 samples = 20931.3 CDDA sectors
File Size : 11.2M
Bit Rate : 320k
Sample Encoding: MPEG audio (layer I, II or III)
Comments :
Title=Shades of Black
Artist=Diamond Head
Album=The Coffin Train
Tracknumber=4
Year=2019
Genre=79



[ Hidden Text ]

Posted by: Old Vyaine May 24 2019, 21:53:08

QUOTE(Necrokilldozer @ 24th May 2019 - 17:15:19) *
Diamond Head

QUOTE(Necrokilldozer @ 24th May 2019 - 17:15:19) *
Hard Rock


https://otvet.imgsmail.ru/download/u_9dfd7cbaec0c359dad4da74bef2bd67a_800.jpg

Posted by: Snowblind May 24 2019, 21:56:48

Да лан, они уже целую пачку странных альбомов выпустили, там даже АОР проскакивал. А что не Лайтнин ту зе нейшн, ну так это когда было.

Posted by: Old Vyaine May 24 2019, 22:04:43

¯\_(ツ)_/¯

Posted by: Yarri May 24 2019, 22:37:19

А вот кстати странно. На мой слух вполне хэви и формат.

Posted by: Rodin May 25 2019, 10:29:11

ЦИТАТА(Snowblind @ May 24 2019, 21:56:48) *
Да лан, они уже целую пачку странных альбомов выпустили, там даже АОР проскакивал. А что не Лайтнин ту зе нейшн, ну так это когда было.


ХЗ на счет странности. мне и Death And Progress и предпоследний альбом вполне заходят.

Posted by: paganheart May 26 2019, 09:20:57

Металлика здорового человека. 1488.gif Собсно, альбом весьма форматный, никаким хардом тут особо и не пахнет.

Posted by: hammer May 26 2019, 12:23:21

Почему альбом записанный в стиле NWOBHM и командой , которая является его ярким представителем- в не формате?
Belly of the Beast metaler.gif metaler.gif

Posted by: Tular May 26 2019, 13:27:05

Хороший форматный альбом.
Не скажу, что я большой любитель Diamond Head, но слушаю этот альбом и прошлый, и аж радостно за дедов. Очень крепко и бодро звучат, уважуха. Не все там деды, конечно, но все же.

Powered by Invision Power Board
© Invision Power Services