Printable Version of Topic

Click here to view this topic in its original format

Metal Area - Extreme Music Portal _ Unformat R: _ Troum & Monocube - Contemplator Caeli [collaboration] (2019)

Posted by: Un4given Jul 8 2019, 14:57:13

http://metalarea.org/images/audiocovers/2019_Jul/acov_tid324084.jpg

*Artist: Troum & Monocube
*Album: Contemplator Caeli [collaboration]
*Year: 2019
*Genre: Ambient | Drone
*Country: Germany | Ukraine
*Format: mp3@CBR320kbps
*Size: 83MB

Tracklist:
1. Circularis et Perpetua 08:00
2. Precessio Aequinoctiorum 10:15
3. Stellae Errantis 08:04
4. Digressio 09:20
******************************
Total playing time: 35:39

https://troum.bandcamp.com/album/contemplator-caeli-collab-with-monocube

Extended info
Мягкий гитарный дроун, возвращающий во времена Maeror Tri (Venenum)


Technical info

Input File: 01 Circularis et Perpetua.mp3
Channels : 2
Sample Rate : 44100
Precision : 16-bit
Duration : 00:08:00.68 = 21198076 samples = 36051.1 CDDA sectors
File Size : 19.3M
Bit Rate : 322k
Sample Encoding: MPEG audio (layer I, II or III)
Comments :
Title=Circularis et Perpetua
Artist=MONOCUBE & TROUM
Album=Contemplator Caeli (collab. with MONOCUBE)
Tracknumber=1
Year=2019
Genre=Drone



[ Hidden Text ]

Posted by: recber Jul 10 2019, 18:06:35

Ссылка не рабочая можно презалить? bye.gif

Posted by: Un4given Jul 21 2019, 19:16:58

Не, чувак из Monocube бдит, как бы его говнецо не украли, а ему чужое здесь можно качать smile1.gif

Posted by: Hell_Is_Here Aug 1 2019, 12:18:38

ЦИТАТА(recber @ Jul 10 2019, 22:06:35) *
Ссылка не рабочая можно презалить? bye.gif

+1

Powered by Invision Power Board
© Invision Power Services