Printable Version of Topic

Click here to view this topic in its original format

Metal Area - Extreme Music Portal _ Unformat R: _ ZZ Top - El Loco (1981)

Posted by: vosmidesijatye Jul 11 2019, 11:29:45

http://metalarea.org/images/audiocovers/2019_Jul/acov_tid324194.jpg

*Artist: ZZ Top
*Album: El Loco
*Year: 1981
*Genre: Blues Rock
*Country: United States
*Format: mp3@CBR320kbps
*Size: 85MB

Tracklist:
1. Tube Snake Boogie
2. I Wanna Drive You Home
3. Ten Foot Pole
4. Leila
5. Don't Tease Me
6. It's So Hard
7. Pearl Necklace
8. Groovy Little Hippie Pad
9. Heaven, Hell Or Houston
10. Party On The Patio
******************************
Total playing time: 37:05

https://www.youtube.com/watch?v=EuvlVo1QdLU

Technical info

Input File: 01. Tube Snake Boogie.mp3
Channels : 2
Sample Rate : 44100
Precision : 16-bit
Duration : 00:03:04.00 = 8114400 samples = 13800 CDDA sectors
File Size : 7.41M
Bit Rate : 322k
Sample Encoding: MPEG audio (layer I, II or III)
Comments :
Title=Tube Snake Boogie
Artist=ZZ Top
Album=El Loco
Tracknumber=01/10
Year=1981
Genre=Hard Rock



[ Hidden Text ]

Posted by: vosmidesijatye Jul 11 2019, 15:30:48

Ангар, как тебе релизец этот?

Posted by: Anger Jul 11 2019, 15:44:51

я их внимательно слушал со следующего, но качал и этот, вроде бы. не помню его. может, не вкатил совсем

а на дисках дома никогда их не было, как ни странно. только клипы их смотрел в доинтернетные времена

Posted by: vosmidesijatye Jul 11 2019, 15:50:12

Начиная с 1990-х вокал стал заметно грубее и жесче.

Хрен знает, как к этому относиться.

Мне и мягкий аамериканизированно-"попсовый" 80нический прёт.

Posted by: vosmidesijatye Jul 16 2019, 14:38:39

ЦИТАТА(Anger @ Jul 11 2019, 18:44:51) *
не вкатил совсем


Да, к сожалению.

Powered by Invision Power Board
© Invision Power Services