Printable Version of Topic

Click here to view this topic in its original format

Metal Area - Extreme Music Portal _ Unformat R: _ Miles Davis - On The Corner (1972)

Posted by: vosmidesijatye Jul 12 2019, 10:37:12

http://metalarea.org/images/audiocovers/2019_Jul/acov_tid324295.jpg

*Artist: Miles Davis
*Album: On The Corner
*Year: 1972
*Genre: Jazz
*Country: United States
*Format: mp3@CBR320kbps
*Size: 122MB

Tracklist:
1. Medley
2. Black Satin
3. One And One
4. Helen Butte - Mr. Freedom X
******************************
Total playing time: 54:51

https://www.youtube.com/watch?v=AIqXprCArdo

Technical info

Input File: 01. Medley.mp3
Channels : 2
Sample Rate : 44100
Precision : 16-bit
Duration : 00:19:59.33 = 52890233 samples = 89949.4 CDDA sectors
File Size : 48.0M
Bit Rate : 320k
Sample Encoding: MPEG audio (layer I, II or III)
Comments :
Title=Medley
Artist=Miles Davis
Album=1972 - On The Corner
Tracknumber=01
Year=1972
Genre=Jazz



[ Hidden Text ]

Posted by: Borderline1991 Jul 12 2019, 17:23:50

I listened. I mostly didn't like the sound because it's too experimental, didn't like the tempo too - too fast and even disturbing. Everything is on many places over the top and everywhere, too much going on at the same time. Some parts are very good.

Posted by: vosmidesijatye Jul 12 2019, 17:45:05

Brilliant.

Posted by: Yarri Jul 12 2019, 17:47:50

John Coltrane - Blue Train!

Posted by: vosmidesijatye Jul 13 2019, 13:08:16

ЦИТАТА(Yarri @ Jul 12 2019, 19:47:50) *
John Coltrane - Blue Train!


За сабж че скажешь?

Posted by: Yarri Jul 13 2019, 13:53:51

Ну я Дэвиса слушал, конечно, но потом снёс. Надоело, что ли. А вот Трейн не отпускает.

Posted by: vosmidesijatye Jul 13 2019, 14:31:06

ЦИТАТА(Borderline1991 @ Jul 12 2019, 19:23:50) *
I listened. I mostly didn't like the sound because it's too experimental, didn't like the tempo too - too fast and even disturbing. Everything is on many places over the top and everywhere, too much going on at the same time. Some parts are very good.


That"s the way he was playing at that period of his career.

Posted by: vam1972 Jul 13 2019, 15:44:41

ЦИТАТА(Yarri @ Jul 13 2019, 15:53:51) *
А вот Трейн не отпускает.

Хар-роший был парравоз! bye.gif

Posted by: vosmidesijatye Jul 30 2019, 13:41:06

ЦИТАТА(Yarri @ Jul 13 2019, 16:53:51) *
Ну я Дэвиса слушал, конечно, но потом снёс. Надоело, что ли. А вот Трейн не отпускает.


Ну Колтрейн в целом и мне ближе.

Хотя иногда прям ну очень хочется послушать Майлза.

Этот альбом, кстати, не самый характерный для него, так скажем.

Posted by: vosmidesijatye Jul 31 2019, 19:14:12

Руслан hammer, мимо не проходи. smile1.gif

Posted by: babanguida Jul 31 2019, 19:15:29

9.gif 9.gif 9.gif

Powered by Invision Power Board
© Invision Power Services