Printable Version of Topic

Click here to view this topic in its original format

Metal Area - Extreme Music Portal _ Unformat R: _ Arditi - Exaltation Of The Past [compilation] (2019)

Posted by: Panacea Jul 20 2019, 16:11:07

http://metalarea.org/images/audiocovers/2019_Jul/acov_tid324693.jpg

*Artist: Arditi
*Album: Exaltation Of The Past [compilation]
*Year: 2019
*Genre: Martial Industrial/Modern Classical/Ambient
*Country: Sweden
*Format: mp3@CBR320kbps
*Size: 108MB

Tracklist:
1. Ploughshares Into Swords 04:32
2. Sieg Durch Zwecksetzung 04:29
3. Legionaries 05:43
4. Ploughshares Into Swords Part II 04:42
5. Volunteers 04:11
6. Nicht Mehr Schande 04:43
7. Blood Firmament 04:47
8. Palingenesis 03:39
9. The Sinking Ship 06:17
10. Standards Of Triumph 04:21
******************************
Total playing time: 47:24

https://steinklangindustries.bandcamp.com/album/arditi-exaltation-of-the-past-lp-1-aug-2019

Extended info
Compilation of tracks from the first era of Arditi.
LP limited to 100 copies released by Steinklang Industries.

Tracks 1, 3, 9 and 10 were originally released on "Standards Of Triumph".
Tracks 2, 6, 7 and 8 were originally released on "Spirit Of Sacrifice".
Track 5 was originally released on "Leading The Iron Resistance".
Track 4 was previously unreleased.

All tracks have been reworked and remastered in 2018.


Technical info

Input File: 10 - Standards Of Triumph.mp3
Channels : 2
Sample Rate : 44100
Precision : 16-bit
Duration : 00:04:21.58 = 11535722 samples = 19618.6 CDDA sectors
File Size : 10.5M
Bit Rate : 321k
Sample Encoding: MPEG audio (layer I, II or III)
Comments :
Title=Standards Of Triumph
Artist=Arditi
Album=Exaltation Of The Past
Tracknumber=10
Year=2019
Genre=Martial Industrial



[ Hidden Text ]

Posted by: Wizard_in_Black Jul 22 2019, 08:56:32

Добротная компиляция. В Martial Industrial Arditi у меня в тройке лидеров на ровне с Puissance и Les Joyaux De La Princesse

Posted by: Kazoth Jul 22 2019, 20:07:52

ЦИТАТА(Wizard_in_Black @ Jul 22 2019, 10:56:32) *
В Martial Industrial Arditi у меня в тройке лидеров на ровне с Puissance и Les Joyaux De La Princesse

А как же Triarii?

Posted by: sethurius Jul 22 2019, 20:18:24

ЦИТАТА(Wizard_in_Black @ Jul 22 2019, 10:56:32) *
на ровне с Puissance и Les Joyaux De La Princesse


Не забываем и про архаичный Von Thronstahl

Posted by: Wizard_in_Black Jul 23 2019, 11:27:30

ЦИТАТА(Kazoth @ Jul 22 2019, 20:07:52) *
А как же Triarii?

С опусами Triarii я до сих пор не ознакомился

ЦИТАТА(sethurius @ Jul 22 2019, 20:18:24) *
Не забываем и про архаичный Von Thronstahl

Этих товарищей я слушаю крайне выборочно

Posted by: AlexCrazy Jul 23 2019, 12:34:40

ЦИТАТА(sethurius @ Jul 22 2019, 22:18:24) *
Не забываем и про архаичный Von Thronstahl

и про недосягаемых отцов-основателей Laibach

Posted by: sethurius Jul 23 2019, 17:12:13

https://vk.com/search?c%5Bq%5D=Von%20Thronstahl%20von%20thronstahl%20%2F%2F%20we%20walked%20in%20line%20(north%20korean%20mix)&c%5Bsection%5D=auto&z=video-54441828_456252990 вот самая тема, не мог удержаться, чтобы не постануть) С ютуба почему то удалили, козлы

Posted by: dalex Jul 23 2019, 18:30:54

ЦИТАТА(sethurius @ Jul 23 2019, 19:12:13) *
Von Thronstahl We Walked in Line (North Korean Mix)

normal_Homerdisgust3.png вообще-то эта песня про SS (оригинал Joy Division - They Walked in Line).

lyrics
All dressed in uniforms so fine,
They drank and killed to pass the time,
Wearing the shame of all their crimes,
With measured steps, they walked in line.
They walked in line,
They walked in line...
They carried pictures of their wives,
And numbered tags to prove their lives,
They walked in line,
They walked in line...
Full of a glory never seen,
They made it through the whole machine,
To never question anymore,
Hypnotic trance, they never saw,
They walked in line,
They walked in line...

Posted by: sethurius Jul 23 2019, 18:56:16

Блдь, и что? Мне приглянулась обработка в стилистике Von Thronstahl , и до пзды, кто ее автор в оригинале, не надо тут этих смайликов

Posted by: dalex Jul 23 2019, 20:02:05

ЦИТАТА(sethurius @ Jul 23 2019, 20:56:16) *
Блдь, и что? Мне приглянулась обработка в стилистике Von Thronstahl , и до пзды, кто ее автор в оригинале, не надо тут этих смайликов

Я именно про "North Korean mix". У Von Thronstahl такого микса нет, так что Северная Корея там вообще ни к чему)

Posted by: Kazoth Jul 23 2019, 20:05:56

ЦИТАТА(Wizard_in_Black @ Jul 23 2019, 13:27:30) *
С опусами Triarii я до сих пор не ознакомился

Упущение
З.Ы. Еще посоветую Wappenbund, если не знаком...

Posted by: sethurius Jul 24 2019, 05:37:57

dalex, понимаешь смысл не в этом. У Металлики тоже нет песни "группа крови" цоевской, однако они ее сыграли недавно вживую. И никто не говорит, эй, послушай, это же не песня металлики, это песня группы кино, вы что)

Powered by Invision Power Board
© Invision Power Services