Printable Version of Topic

Click here to view this topic in its original format

Metal Area - Extreme Music Portal _ Unformat R: _ Зоопарк - Blues De Moscou [live] (1981)

Posted by: vosmidesijatye Aug 5 2019, 19:17:45

http://metalarea.org/images/audiocovers/2019_Aug/acov_tid325374.jpeg

*Artist: Зоопарк
*Album: Blues De Moscou [live]
*Year: 1981
*Genre: Blues Rock
*Country: Russian Federation
*Format: mp3@CBR320kbps
*Size: 148MB

Tracklist:
1. Странные Дни
2. Если Будет Дождь
3. Когда Я Знал Тебя Совсем Другой
4. Позвони Мне Рано Утром
5. Блюз Субботнего Вечера
6. Все В Порядке
7. Седьмая Глава
8. Блюз Твоей Реки
9. Если Хочешь
10. Прощай,Детка!
11. Сладкая N
12. Дрянь
13. Страх В Твоих Глазах
14. Пригородный Блюз
15. Женщина
16. Звезда Рок-н-ролла
17. Ода Ванной Комнате
18. Горький Ангел
19. Пригородный Блюз N2
20. Blues de Moscou part 2
******************************
Total playing time: 1:07:48

https://www.youtube.com/watch?v=k3316rZyS3g

Technical info

Input File: 01Странные Дни.mp3
Channels : 2
Sample Rate : 44100
Precision : 16-bit
Duration : 00:03:04.36 = 8130232 samples = 13826.9 CDDA sectors
File Size : 7.37M
Bit Rate : 320k
Sample Encoding: MPEG audio (layer I, II or III)
Comments :
Title=Странные Дни
Artist=Зоопарк
Album=Blues De Moscou
Tracknumber=01/20
Year=1981
Genre=Rock



[ Hidden Text ]

Posted by: vosmidesijatye Aug 5 2019, 19:52:19

Первопроходец советского блюза. Жаль, здесь нет песенки Гопники 20.gif




Posted by: vosmidesijatye Aug 7 2019, 15:23:59

Текст Гопничков до сих пор актуален. 1488.gif Хоть гопшанских и не встречаетя почти, в отличие от алкашей и синеботов, ну они в России всегда будут.

ЦИТАТА
Кто это идет, сметая все на своем пути
Кто одет в цветную рубашку и красные носки?
У кого на ногах из черной резины грязные сапоги?
Это гопники!
Это гопники!
Это гопники!
Они мешают мне жить!
Кто слушает "хэви-металл", Арабесок и Оттаван
Кто бьет друг другу морду, когда бывает пьян?
У кого крутые подруги, за которых не дашь и рубля?
Кто не может связать двух слов, не ввязав между ними ноту "ля"?
Это гопники!
Это гопники!
Это гопники!
Они мешают мне жить!
Кто хлещет в жару портвейн, кто не греет пива зимой
Кто плюется как верблюд, кто смеется как козодой?
Кто гадит в наших парадных, кто блюет в вагонах метро
Кто всегда готов подбить нам глаз и всадить вам в бок перо?
Это гопники!
Это гопники!
Это гопнички!…


Ну и этот трэкчанский великолепен



Да так то, о чем базлан. здесь уже каждый трэк - классика.

Жаль, Майк не получил большего признания.

Posted by: Bruce Aug 9 2019, 18:02:28

А когде это гопники слушали "хэви-металл" ? sirt.gif

Posted by: vosmidesijatye Aug 19 2019, 08:43:17

ЦИТАТА(Bruce @ Aug 9 2019, 21:02:28) *
А когде это гопники слушали "хэви-металл" ? sirt.gif


Когда Майк писал эту песню. look.gif

Powered by Invision Power Board
© Invision Power Services