Printable Version of Topic

Click here to view this topic in its original format

Metal Area - Extreme Music Portal _ Unformat R: _ Epica - The Acoustic Universe [ep] (2019)

Posted by: Alpha_Prime Jan 19 2020, 16:02:12

http://metalarea.org/images/audiocovers/2020_Jan/acov_tid332830.jpg

*Artist: http://metalarea.org/forum/index.php?showtopic=7437
*Album: The Acoustic Universe [ep]
*Year: 2019
*Genre: Acoustic
*Country: Netherlands
*Format: mp3@CBR320kbps
*Size: 64MB

Tracklist:
1. Burn to a Cinder (Acoustic Version)
2. Our Destiny (Acoustic Version)
3. Unleashed (Acoustic Version)
4. Martyr of the Free Word (Acoustic Version)
5. Design Your Universe (Acoustic Version)
******************************
Total playing time: 27:52

https://www.facebook.com/epica
https://www.youtube.com/user/epica

Technical info

Input File: 01 - Burn to a Cinder (Acoustic version).mp3
Channels : 2
Sample Rate : 44100
Precision : 16-bit
Duration : 00:05:29.71 = 14540343 samples = 24728.5 CDDA sectors
File Size : 13.2M
Bit Rate : 320k
Sample Encoding: MPEG audio (layer I, II or III)
Comments :
Title=Burn to a Cinder (Acoustic version)
Artist=Epica
Album=The Acoustic Universe
Tracknumber=1
Year=2019
Genre=99



[ Hidden Text ]

Powered by Invision Power Board
© Invision Power Services