Printable Version of Topic

Click here to view this topic in its original format

Metal Area - Extreme Music Portal _ Unformat R: _ Various Artists - Godflesh Streetcleaner: The Cvlt Nation Sessions [compilation] (2019)

Posted by: as71 Jan 22 2020, 20:34:52

http://metalarea.org/images/audiocovers/2020_Jan/acov_tid332964.jpg

*Artist: Various Artists
*Album: Godflesh Streetcleaner: The Cvlt Nation Sessions [compilation]
*Year: 2019
*Genre: Industrial Metal/Industrial/Noise
*Country: Many
*Format: mp3@CBR320kbps
*Size: 133MB

Tracklist:
01. Street Sects - Like Rats 04:23
02. American - Christbait Rising 08:57
03. Lunacy - Pulp 04:33
04. At The Heart Of The World - Dream Long Dead 04:49
05. Treha Sektori - Head Dirt 04:31
06. Many Blessings - Devastator / Mighty Trust Krusher 10:17
07. Hissing - Life Is Easy 07:39
08. Statiqbloom - Streetcleaner 06:52
09. Atriarch - Locust Furnace 04:34
******************************
Total playing time: 56:34

https://cvltnation.bandcamp.com/album/godflesh-streetcleaner-the-cvlt-nation-sessions

Extended info
Средний паршивости трибьют на культовый альбом. Только для упертых фанатов и коллекционеров.


Technical info

Input File: 01 - Street Sects - Like Rats.mp3
Channels : 2
Sample Rate : 44100
Precision : 16-bit
Duration : 00:04:23.46 = 11618674 samples = 19759.6 CDDA sectors
File Size : 10.5M
Bit Rate : 320k
Sample Encoding: MPEG audio (layer I, II or III)
Comments :
Title=Street Sects: Like Rats
Artist=Compilation
Album=GODFLESH Streetcleaner: The CVLT Nation Sessions
Tracknumber=01
Year=2019
Genre=Industrial Metal/Industrial/Noise



[ Hidden Text ]

Powered by Invision Power Board
© Invision Power Services