Printable Version of Topic

Click here to view this topic in its original format

Metal Area - Extreme Music Portal _ Unformat R: _ Grunt - Kraniometria [ep] (2019)

Posted by: Indstrlfrppl Jan 23 2020, 17:09:04

https://metalarea.org/images/audiocovers/2020_Jan/acov_tid333013.jpg

*Artist: Grunt
*Album: Kraniometria [ep]
*Year: 2019
*Genre: Noise/Harsh Noise
*Country: Finland
*Format: mp3@CBR320kbps
*Size: 44MB

Tracklist:
01. Eschatological Uterus 03:59
02. Sex-Paralys-Appeal 01:49
03. Kraniometria 15:09
******************************
Total playing time: 20:57

https://www.youtube.com/watch?v=EE3s_0syR50

Extended info
For many years, Grunt have published mainly material leaning to power electronics / industrial noise. There has always been harsh noise element in Grunt. "Kraniometria" is combination of many known elements of Grunt noise: Physicality, analogue rawness, electronic sharpness, yet it is much more than you have formerly heard. From hours of recordings and experiments over 2018, new tools and methods were applied. Result is all instrumental, all harsh, most often free flowing fast paced modulations. It is step to different direction from grinding loops and acoustic metal junks often dominating in the past. Grunt shows it is still able to renew it's approach after over 25 years of work.


Technical info

Input File: 01. Eschatological Uterus.mp3
Channels : 2
Sample Rate : 44100
Precision : 16-bit
Duration : 00:03:59.36 = 10555952 samples = 17952.3 CDDA sectors
File Size : 9.73M
Bit Rate : 325k
Sample Encoding: MPEG audio (layer I, II or III)
Comments :
Title=Eschatological Uterus
Artist=Grunt
Album=Kraniometria
Tracknumber=01
Year=2019
Genre=Noise



[ Hidden Text ]

Powered by Invision Power Board
© Invision Power Services