Printable Version of Topic

Click here to view this topic in its original format

Metal Area - Extreme Music Portal _ Unformat R: _ Pearls To Swine - Light And Shade (1999)

Posted by: Gelukas Jan 24 2020, 14:01:42

https://metalarea.org/images/audiocovers/2020_Jan/acov_tid333042.jpg

*Artist: Pearls To Swine
*Album: Light And Shade
*Year: 1999
*Genre: Rock
*Country: Guyana
*Format: mp3@VBR246kbps
*Size: 77MB

Tracklist:
1. Tile Junkie (Explicit lyrics) 03:55
2. Bird of the flame 05:55
3. Stone cold 03:10
4. Ritualistic holocaust 03:16
5. Socio-love enraged 07:06
6. Machine of death (Explicit lyrics) 05:15
7. Ishun (Explicit lyrics) 02:54
8. Black sex (Explicit lyrics) 02:06
9. Taste the whip 03:10
10. Sanctum 06:07
******************************
Total playing time: 42:54

https://pearlstoswine.bandcamp.com/album/light-shade
https://www.youtube.com/watch?v=fBqqvMeXjZQ

Technical info

Input File: 02 Bird of the flame.mp3
Channels : 2
Sample Rate : 44100
Precision : 16-bit
Duration : 00:05:55.13 = 15661409 samples = 26635 CDDA sectors
File Size : 11.3M
Bit Rate : 254k
Sample Encoding: MPEG audio (layer I, II or III)
Comments :
Title=Bird of the flame
Artist=Pearls to swine
Album=Light & shade
Tracknumber=2
Year=1998
Genre=17



[ Hidden Text ]

Powered by Invision Power Board
© Invision Power Services