Printable Version of Topic

Click here to view this topic in its original format

Metal Area - Extreme Music Portal _ Unformat R: _ Goblin Hovel - Nothing Like Our Fantasy [ep] (2019)

Posted by: Necrokilldozer Jan 27 2020, 18:20:38

http://metalarea.org/images/audiocovers/2020_Jan/acov_tid333155.jpg

*Artist: Goblin Hovel
*Album: Nothing Like Our Fantasy [ep]
*Year: 2019
*Genre: Folk/Doom Metal, Neofolk
*Country: United States
*Format: mp3@CBR320kbps
*Size: 65MB

Tracklist:
1.Urgischk 04:33
2.A Night at the Festival 04:10
3.Forests of Painted Bone 05:05
4.Le Château Hanté 08:07
5.The Daemon Engine 05:33
******************************
Total playing time: 27:28

https://goblinhovel.bandcamp.com/album/nothing-like-our-fantasy-2

Extended info
Line - up:

Goblin - Guitars, Cello, Bass, Mandolin, Cajon, Djembe, Cymbals, Killa kans, Vuvuzela, Mouth harp, Vocals (Eira, Mephistoph, ex-Nazgûl, ex-Armageddon, Shrine of Burls, ex-Gnome Hut, ex-Monolith)


Technical info

Input File: 02. A Night At The Festival.mp3
Channels : 2
Sample Rate : 44100
Precision : 16-bit
Duration : 00:04:10.56 = 11049564 samples = 18791.8 CDDA sectors
File Size : 10.1M
Bit Rate : 323k
Sample Encoding: MPEG audio (layer I, II or III)
Comments :
Title=A Night At The Festival
Artist=Goblin Hovel
Album=Nothing Like Our Fantasy (EP)
Tracknumber=2
Year=2019
Genre=Folk/Doom Metal, Neofolk



[ Hidden Text ]

Posted by: goatkvlt Feb 9 2020, 09:37:21

Прикольная темка!
Вместо дума я бы сюда какое-нибудь death country вписал. 1488.gif

Powered by Invision Power Board
© Invision Power Services