Printable Version of Topic

Click here to view this topic in its original format

Metal Area - Extreme Music Portal _ Unformat R: _ Division Of Madness - Enter The Wonderland (2020)

Posted by: VLADISLAV_V_K Feb 1 2020, 14:12:03

http://metalarea.org/images/audiocovers/2020_Feb/acov_tid333329.jpg

*Artist: Division Of Madness
*Album: Enter The Wonderland
*Year: 2020
*Genre: Heavy Metal/Hard Rock
*Country: United States
*Format: mp3@CBR320kbps
*Size: 135MB

Tracklist:
01. Wonderland
02. Overrated
03. Revolution
04. Talking to myShadow
05. Like the Wind
06. Brick House
07. Chainsaw Woman
08. In the Name of Love
09. Radioactive
10. Closer
11. She
12. The Waiting Game
13. Pretending
14. Where Angels Burn
******************************
Total playing time: 58:56

https://play.google.com/store/music/album/Division_of_Madness_Enter_the_Wonderland?id=Bo6rse5b7xpiidcavcd3mcev7hq
https://music.yandex.ru/album/9709282

Extended info






Composer Lyricist: Markus Metzger
Songwriter: Markus Metzger
Composer Lyricist: Sotirios Eleftheriadis
Songwriter: Sotirios Eleftheriadis


Technical info

Input File: 01-Wonderland.mp3
Channels : 2
Sample Rate : 44100
Precision : 16-bit
Duration : 00:05:32.64 = 14669336 samples = 24947.9 CDDA sectors
File Size : 13.3M
Bit Rate : 320k
Sample Encoding: MPEG audio (layer I, II or III)
Comments :
Title=Wonderland
Artist=Division Of Madness
Album=Enter The Wonderland
Tracknumber=1
Year=2020
Genre=Heavy Metal



[ Hidden Text ]

Posted by: VLADISLAV_V_K Feb 2 2020, 07:47:19

FLAC tracks
[ Hidden Text ]

Posted by: Kehl05 Feb 2 2020, 08:23:14

Ну да,базара нет,раз в превью стоит гугол плей и яндекс музыка,значит инфа железная - Страна: United States 1488.gif Тебе казахи написали бы,ты бы также и указал тупо скопировал

Powered by Invision Power Board
© Invision Power Services