Printable Version of Topic

Click here to view this topic in its original format

Metal Area - Extreme Music Portal _ Unformat R: _ Cymande - Cymande (1972)

Posted by: Borderline1991 Feb 4 2020, 10:14:14

http://metalarea.org/images/audiocovers/2020_Feb/acov_tid333436.jpg

*Artist: Cymande
*Album: Cymande
*Year: 1972
*Genre: Fusion Rock
*Country: United Kingdom
*Format: mp3@CBR320kbps
*Size: 120MB

Tracklist:
01 Zion I 03:30
02 One More 03:05
03 Getting It Back 04:18
04 Listen 04:40
05 Rickshaw 05:54
06 Dove 10:54
07 Bra 05:06
08 The Message 04:20
09 Ras Tafarian Folk Song 03:15
10 The Message (7'' Mix) 03:28
11 Bra (7'' Mix) 03:28
******************************
Total playing time: 51:58

https://youtu.be/YcL8SvyKtE4

Extended info
https://www.discogs.com/Cymande-Cymande/release/411517
https://en.wikipedia.org/wiki/Cymande


Technical info

Input File: 02 - One More.mp3
Channels : 2
Sample Rate : 44100
Precision : 16-bit
Duration : 00:03:05.87 = 8196911 samples = 13940.3 CDDA sectors
File Size : 7.43M
Bit Rate : 320k
Sample Encoding: MPEG audio (layer I, II or III)



[ Hidden Text ]

Posted by: vosmidesijatye Feb 4 2020, 12:03:58

Another rare stuff?

Will definitely give it a try.

The 70's era so rarely disappoints.

Soon I'll upload something psyched out from this time.

Powered by Invision Power Board
© Invision Power Services