Printable Version of Topic

Click here to view this topic in its original format

Metal Area - Extreme Music Portal _ Unformat R: _ Исихия - Исихия (2001)

Posted by: Black Cat Feb 7 2020, 13:23:56

https://metalarea.org/images/audiocovers/2020_Feb/acov_tid333563.JPG

*Artist: Исихия
*Album: Исихия
*Year: 2001
*Genre: Bulgarian Folk/Ambient
*Country: Bulgaria
*Format: mp3@CBR320kbps
*Size: 135MB

Tracklist:
01. Преображение
02. Господи Возвах
03. Царя Фружина
04. Черномен
05. 1393
06. Ветре
07. Саруяр
******************************
Total playing time: 59:27

https://www.youtube.com/watch?v=la8C51Vu0t0

Technical info

Input File: 02 - Господи Возвах.mp3
Channels : 2
Sample Rate : 44100
Precision : 16-bit
Duration : 00:09:15.74 = 24508002 samples = 41680.3 CDDA sectors
File Size : 22.2M
Bit Rate : 320k
Sample Encoding: MPEG audio (layer I, II or III)
Comments :
Title=Господи Возвах
Artist=Исихия
Album=Исихия
Tracknumber=02
Year=2001
Genre=Bulgarian Folk/Ambient



[ Hidden Text ]

Powered by Invision Power Board
© Invision Power Services