Printable Version of Topic

Click here to view this topic in its original format

Metal Area - Extreme Music Portal _ Unformat R: _ Исихия - Орисия (2003)

Posted by: Black Cat Feb 7 2020, 13:28:05

https://metalarea.org/images/audiocovers/2020_Feb/acov_tid333564.jpg

*Artist: Исихия
*Album: Орисия
*Year: 2003
*Genre: Bulgarian Folk/Ambient
*Country: Bulgaria
*Format: mp3@CBR320kbps
*Size: 153MB

Tracklist:
01. Ключ
02. Родопа
03. Угар
04. Кости
05. Турски Танц
06. Проклятието
07. Чакрък
08. Въведение
09. Арамии
10. Господи Возвах
11. Ветре
******************************
Total playing time: 1:11:04

https://www.youtube.com/watch?v=pJhmq0z-Ph4

Technical info

Input File: 02 - Родопа.mp3
Channels : 2
Sample Rate : 44100
Precision : 16-bit
Duration : 00:10:33.72 = 27946876 samples = 47528.7 CDDA sectors
File Size : 25.3M
Bit Rate : 320k
Sample Encoding: MPEG audio (layer I, II or III)
Comments :
Title=Родопа
Artist=Исихия
Album=Орисия
Tracknumber=02
Year=2003
Genre=Bulgarian Folk/Ambient



[ Hidden Text ]

Posted by: Slavas Mar 13 2020, 19:19:16

Please re-up

Posted by: INDARKNESS Mar 13 2020, 23:14:29

[ Hidden Text ]

Powered by Invision Power Board
© Invision Power Services