Printable Version of Topic

Click here to view this topic in its original format

Metal Area - Extreme Music Portal _ Unformat R: _ Der Golem - Zmet (1999)

Posted by: Gelukas Feb 12 2020, 09:36:40

https://metalarea.org/images/audiocovers/2020_Feb/acov_tid333702.jpg

*Artist: Der Golem
*Album: Zmet
*Year: 1999
*Genre: Avant-Garde Post-Punk/Ambient/Depressive Rock
*Country: Russian Federation
*Format: mp3@CBR320kbps
*Size: 99MB

Tracklist:
1. Нет 5:03
2. Оригинальная Мелодия 5:09
3. Древние Звёзды 3:34
4. Bravo 4:46
5. Солнце Мёртвых 5:25
6. Целуя Твои Корни 3:00
7. Пан 3:34
8. Птицы 3:10
9. Исход I 6:25
10. Исход II 3:09
******************************
Total playing time: 43:15

https://www.youtube.com/watch?v=3JEtLarBofQ

Technical info

Input File: 09 - Исход I.mp3
Channels : 2
Sample Rate : 44100
Precision : 16-bit
Duration : 00:06:24.70 = 16965402 samples = 28852.7 CDDA sectors
File Size : 15.4M
Bit Rate : 321k
Sample Encoding: MPEG audio (layer I, II or III)
Comments :
Title=Исход I
Artist=Der Golem
Album=Zmet
Tracknumber=9
Year=1999
Genre=Ambient



[ Hidden Text ]

Posted by: Maestrovs Feb 12 2020, 15:31:43

Эге, этого ещё не было здесь?
"Нет" гениальна, остальное совсем забыл за несколько лет с момента прослушивания. Нужно переслушать.

Posted by: Maestrovs Feb 19 2020, 15:50:24

Удивлялся, потому что "Старуха мха" здесь выложена ещё 12 лет назад и обсуждаема. Хотя её я так и не понял, а вот сидоровский "Sedative" невероятен почти полностью.

А "Нет" снова ввела в состояние транса. Заставив вспомнить и пережить описываемые события и сделав настолько душевно плохо, что стало даже как-то почти хорошо.

Auf Wiedersehen, мадам,
Нам было с тобой хорошо.
Auf Wiedersehen, мадам.
Это время прошло.
Auf Wiedersehen, мадам,
Быть может, встретимся Там.

Posted by: Qliphoth Feb 19 2020, 17:15:38

QUOTE(Maestrovs @ Feb 19 2020, 17:50:24) *
Удивлялся, потому что "Старуха мха" здесь выложена ещё 12 лет назад и обсуждаема. Хотя её я так и не понял, а вот сидоровский "Sedative" невероятен почти полностью.

А "Нет" снова ввела в состояние транса. Заставив вспомнить и пережить описываемые события и сделав настолько душевно плохо, что стало даже как-то почти хорошо.

Auf Wiedersehen, мадам,
Нам было с тобой хорошо.
Auf Wiedersehen, мадам.
Это время прошло.
Auf Wiedersehen, мадам,
Быть может, встретимся Там.

Слушай тогда "концерт в лесу". Он особо доставляет.

Powered by Invision Power Board
© Invision Power Services