Printable Version of Topic

Click here to view this topic in its original format

Metal Area - Extreme Music Portal _ Unformat R: _ 300 000 V.K. - Peter Paradox (2019)

Posted by: as71 Feb 14 2020, 21:12:21

http://metalarea.org/images/audiocovers/2020_Feb/acov_tid333818.jpg

*Artist: 300 000 V.K.
*Album: Peter Paradox
*Year: 2019
*Genre: Industrial/Electronic/Experimental
*Country: Slovenia
*Format: mp3@CBR320kbps
*Size: 98MB

Tracklist:
01. Das Schöne, Das Gute, Das Wahre 03:20
02. Paradosso Misterioso 04:30
03. S+C 06:19
04. La Consolazione 04:33
05. Smisel 05:36
06. Carnales Nihilismus 04:07
07. Zona Erogena 03:26
08. Beyond Death 05:47
09. Dobro 04:50
******************************
Total playing time: 42:29

https://www.youtube.com/watch?v=lJ0SB9V5T8I&list=OLAK5uy_mH83M48lUDZ6xRUs6giPwxTMQnP9ronQA&index=1

Extended info
Новый альбом проекта Dejan Knez, бывшего участника Laibach, первый после 14-летнего перерыва. В отличие от предыдущих записей, местами как раз Laibach и напоминает.


Technical info

Input File: 02 - Paradosso Misterioso.mp3
Channels : 2
Sample Rate : 44100
Precision : 16-bit
Duration : 00:04:30.25 = 11918201 samples = 20269 CDDA sectors
File Size : 10.8M
Bit Rate : 320k
Sample Encoding: MPEG audio (layer I, II or III)
Comments :
Title=Paradosso Misterioso
Artist=300 000 V.K.
Album=Peter Paradox
Tracknumber=02
Year=2019
Genre=Industrial/Electronic



[ Hidden Text ]

Powered by Invision Power Board
© Invision Power Services