Printable Version of Topic

Click here to view this topic in its original format

Metal Area - Extreme Music Portal _ Unformat R: _ Голос Омерики - Чехословакия (2020)

Posted by: KVRT Sep 22 2020, 12:59:42

https://metalarea.org/images/audiocovers/2020_Sep/acov_tid341835.jpg

*Artist: Голос Омерики
*Album: Чехословакия
*Year: 2020
*Genre: Ska, Punk
*Country: Russian Federation
*Format: mp3@CBR320kbps
*Size: 129MB

Tracklist:
01.Как ох@нно нигде не работать 3:57
02.Министр культуры 3:38
03.Чёрный плащ 2:49
04.Мизантроп 3:29
05.Русская трэшня 3:32
06.Звук – говно, пиво дорогое! 3:39
07.Тёплая китайская куртка 3:18
08.Спецотряд ЧУМА 3:58
09.Знаем, плавали! 3:25
10Овердох@ища 3:54
11.ВММХЗК 3:50
12.Поле чудес 4:11
13.Чехословакия 4:09
14.Родина 4:30
15.Чёрный плащ Кабаре–версия 3:46
******************************
Total playing time: 56:05

https://music.yandex.ru/album/11871069/track/70342492?from=serp
https://vk.com/music/playlist/-23760674_31
https://open.spotify.com/album/4MT8l4goto37qxLcihEswV?si=fPHxdZztSEuLoWRUJk1pCQ&_branch_match_id=836913900556828993

Extended info
About
"Golos Omeriki" was founded in 2004 in Moscow. Alco - chanson - cabaret - punk!



Technical info

Input File: 02. Министр культуры.mp3
Channels : 2
Sample Rate : 44100
Precision : 16-bit
Duration : 00:03:38.15 = 9620415 samples = 16361.2 CDDA sectors
File Size : 8.79M
Bit Rate : 322k
Sample Encoding: MPEG audio (layer I, II or III)
Comments :
Title=Министр культуры
Artist=Голос Омерики
Album=Чехословакия
Tracknumber=2/15
Year=2020
Genre=121
Discnumber=1/1



[ Hidden Text ]

Posted by: Vitald Oct 6 2020, 09:21:12

Послушать под пивас и мумию рыбы - поржать --- нормально катит такая г0вно-шнуровская калька.

Posted by: Baudolino Oct 6 2020, 09:58:08

ЦИТАТА(Vitald @ Oct 6 2020, 11:21:12) *
г0вно-шнуровская калька.

Да не. Тут скорее калька на другую команду, название которой я запамятовал. Они еще пели : "девчонки полюбили не меня, девчонки полюбили говнаря", ну или как-то так.

Posted by: sabr Oct 6 2020, 10:25:14

Отличная банда,-спасибо большое!

Posted by: Vitald Oct 6 2020, 10:33:05

ЦИТАТА(Baudolino @ Oct 6 2020, 09:58:08) *
Да не. Тут скорее калька на другую команду, название которой я запамятовал. Они еще пели : "девчонки полюбили не меня, девчонки полюбили говнаря", ну или как-то так.

Быть может... не принципиально.
Я не силён в пУнке, потому как не ф0нат ни разу. Послушал из-за названия группца и поржал с содержимого. Одноразово в моём случае.
Вторая телега про министра культуры женского рода ржачная получилась, беспесты фнатуре.


Posted by: zyklon Apr 16 2021, 17:53:45

Сегодня вышел новый EP - Уздечка, мож есть у кого?

Эй красота, вынь 3алупу изо рта! 1488.gif

Posted by: sabr Apr 16 2021, 21:03:21

ЦИТАТА(zyklon @ Apr 16 2021, 19:53:45) *
Сегодня вышел новый EP - Уздечка, мож есть у кого?

Эй красота, вынь 3алупу изо рта! 1488.gif

из сети
https://cloud.mail.ru/public/5ctJ/fjjyaWAbM

Powered by Invision Power Board
© Invision Power Services