Printable Version of Topic

Click here to view this topic in its original format

Metal Area - Extreme Music Portal _ Unformat R: _ Kotzreiz - Nüchtern Unerträglich (2020)

Posted by: Kvlt Jan 18 2021, 04:29:07

http://metalarea.org/images/audiocovers/2021_Jan/acov_tid346228.jpg

*Artist: Kotzreiz
*Album: Nüchtern Unerträglich
*Year: 2020
*Genre: Punk
*Country: Germany
*Format: mp3@CBR320kbps
*Size: 53MB

Tracklist:
1. Dusty
2. Nüchtern unerträglich
3. Wer is wieder da
4. Toilettenstern
5. Eiskalte Ohren
6. Punkboys Don't Cry
7. Ratten im System
8. Sambuca Beach
9. Nix zu verliern
10. Ich bin ein Wrack
11. Der räudige Aal
******************************
Total playing time: 23:36

https://kotzreiz.bandcamp.com/album/n-chtern-unertr-glich
https://www.youtube.com/watch?v=9bzJVc-suhg

Technical info

Input File: 04 - Toilettenstern (feat. Emilie Krawall).mp3
Channels : 2
Sample Rate : 44100
Precision : 16-bit
Duration : 00:02:12.22 = 5830726 samples = 9916.2 CDDA sectors
File Size : 5.71M
Bit Rate : 345k
Sample Encoding: MPEG audio (layer I, II or III)
Comments :
Title=Toilettenstern (feat. Emilie Krawall)
Artist=Kotzreiz
Album=Nüchtern unerträglich
Year=2020



[ Hidden Text ]

Powered by Invision Power Board
© Invision Power Services