Printable Version of Topic

Click here to view this topic in its original format

Metal Area - Extreme Music Portal _ Unformat R: _ Metalblack - When The Night Conquers Light (2021)

Posted by: Shadechaser May 3 2021, 10:50:37

http://metalarea.org/images/audiocovers/2021_May/acov_tid350387.jpg

*Artist: http://metalarea.org/forum/index.php?showtopic=325159
*Album: When The Night Conquers Light
*Year: 2021
*Genre: Ambient/Dungeon Synth
*Country: Russian Federation
*Format: mp3@CBR320kbps
*Size: 180MB

Tracklist:
01. Too Early for Snow
02. It Was Cold
03. Only Darkness Remains
04. The Night Has Not Gone
05. The Last Stronghold
06. Under the Hood
07. The Magic Turned Black
08. Enslaved by Darkness
09. Wandering Shadow
10. The Children of Morgoth
11. Drums of War
12. Victory or Death
13. The Glimmering Between Trees
14. Horned Race
15. The Shadow Path
16. Somewhere in the Nethermost Profound
******************************
Total playing time: 1:18:46

Extended info
https://metalblack.bandcamp.com/album/when-the-night-conquers-light


Technical info

Input File: 02. It Was Cold.mp3
Channels : 2
Sample Rate : 44100
Precision : 16-bit
Duration : 00:05:33.27 = 14696987 samples = 24994.9 CDDA sectors
File Size : 13.3M
Bit Rate : 320k
Sample Encoding: MPEG audio (layer I, II or III)
Comments :
Title=It Was Cold
Artist=MetalBlack
Album=When the Night Conquers Light
Tracknumber=2



[ Hidden Text ]

Posted by: KKK1488 May 3 2021, 16:04:25

пожалуйста, дайте ссылку на другой обменник

Posted by: Shadechaser May 3 2021, 16:32:53

[ Hidden Text ]

Powered by Invision Power Board
© Invision Power Services