Printable Version of Topic

Click here to view this topic in its original format

Metal Area - Extreme Music Portal _ Unformat R: _ Metalblack - Behind The Gloomy Forest (2020)

Posted by: Shadechaser May 3 2021, 13:33:21

http://metalarea.org/images/audiocovers/2021_May/acov_tid350398.jpg

*Artist: http://metalarea.org/forum/index.php?showtopic=325159
*Album: Behind The Gloomy Forest
*Year: 2020
*Genre: Ambient/Dungeon Synth
*Country: Russian Federation
*Format: mp3@CBR320kbps
*Size: 117MB

Tracklist:
01. No Human's Land
02. Remains of the Greatness
03. Blacksmith Village
04. The Stone and the Wind
05. Tower Embrasure
06. Last Dance
07. Caves and Tunnels
08. Ancient City of Giants
09. Guards of the King
10. Old Raven
******************************
Total playing time: 51:27

https://metalblack.bandcamp.com/album/behind-the-gloomy-forest

Technical info

Input File: 02. Remains of the Greatness.mp3
Channels : 2
Sample Rate : 44100
Precision : 16-bit
Duration : 00:04:10.11 = 11029983 samples = 18758.5 CDDA sectors
File Size : 10.0M
Bit Rate : 320k
Sample Encoding: MPEG audio (layer I, II or III)
Comments :
Title=Remains of the Greatness
Artist=MetalBlack
Album=Behind the Gloomy Forest
Tracknumber=2



[ Hidden Text ]

Powered by Invision Power Board
© Invision Power Services