Printable Version of Topic

Click here to view this topic in its original format

Metal Area - Extreme Music Portal _ Unformat R: _ Earth Wind & Fire - I Am (1979)

Posted by: vosmidesijatye May 7 2021, 14:33:46



*Artist: Earth Wind & Fire
*Album: I Am
*Year: 1979
*Genre: Jazz/Funk/Soul
*Country: United States
*Format: mp3@CBR320kbps
*Size: 103MB

Tracklist:
1. In The Stone 04:48
2. Can't Let Go 03:28
3. After The Love Has Gone 04:38
4. Let Your Feelings Show 05:12
5. Boogie Wonderland 04:48
6. Star 04:23
7. Wait 03:39
8. Rock That! 03:07
9. You And I 03:34
10. Diana 04:08
11. Dirty (Interlude) 00:52
12. Dirty (Junior's Juke) 03:44
******************************
Total playing time: 46:21

https://www.youtube.com/watch?v=god7hAPv8f0&list=RDgod7hAPv8f0&start_radio=1

Technical info

Input File: 06_Star.mp3
Channels : 2
Sample Rate : 44100
Precision : 16-bit
Duration : 00:04:24.50 = 11664230 samples = 19837.1 CDDA sectors
File Size : 10.6M
Bit Rate : 320k
Sample Encoding: MPEG audio (layer I, II or III)
Comments :
Artist=Earth, Wind & Fire
Album=I Am
Year=1979
Genre=Jazz+Funk



[ Hidden Text ]

Powered by Invision Power Board
© Invision Power Services