Printable Version of Topic

Click here to view this topic in its original format

Metal Area - Extreme Music Portal _ Unformat R: _ The Firebirds - Light My Fire (1969)

Posted by: vosmidesijatye May 11 2021, 14:31:27

http://metalarea.org/images/audiocovers/2021_May/acov_tid350746.jpg

*Artist: The Firebirds
*Album: Light My Fire
*Year: 1969
*Genre: Hard Rock/Heavy Psych
*Country: United Kingdom
*Format: mp3@CBR320kbps
*Size: 70MB

Tracklist:
1. Warm Up 02:30
2. Reflections 04:22
3. By Baby 05:29
4. Free Bass, Free Drum, Free Fuzz 02:37
5. Gypsy Fire 04:31
6. Delusions 02:39
7. No Tomorrows 05:02
8. Light My Fire 04:18
******************************
Total playing time: 31:28

https://www.youtube.com/watch?v=HqPIsm6NI6I&feature=emb_logo

Technical info

Input File: 01 - Warm Up.mp3
Channels : 2
Sample Rate : 44100
Precision : 16-bit
Duration : 00:02:29.80 = 6606048 samples = 11234.8 CDDA sectors
File Size : 6.03M
Bit Rate : 322k
Sample Encoding: MPEG audio (layer I, II or III)
Comments :
Title=Warm Up
Artist=The Firebirds
Album=Light My Fire
Tracknumber=1
Year=1969
Genre=Psychedelic Rock



[ Hidden Text ]

Posted by: vosmidesijatye May 11 2021, 18:23:50

Ребята обыграли не только название трэка The Doors, но и мотивчик в открывающем трэке. А сам сабж - очень крутой вязкий блюзовый сай рок.

Powered by Invision Power Board
© Invision Power Services