Printable Version of Topic

Click here to view this topic in its original format

Metal Area - Extreme Music Portal _ Unformat R: _ Throat - Smile Less (2021)

Posted by: Necrokilldozer May 14 2021, 16:18:14

http://metalarea.org/images/audiocovers/2021_May/acov_tid350871.jpg

*Artist: Throat
*Album: Smile Less
*Year: 2021
*Genre: Sludge/Noise Rock
*Country: Finland
*Format: mp3@CBR320kbps
*Size: 91MB

Tracklist:
1. Conveyer Line 06:50
2. Grounding 05:31
3. Shots 02:53
4. Deadpan 04:42
5. Home Is Where Your Hurt Is 08:19
6. Vanilla Cuts 03:42
7. Hospice 05:59
******************************
Total playing time: 37:56

https://ihatethroat.bandcamp.com/album/smile-less

Extended info
Line - up:

Aleksis Juhakoski - Guitars (ex-Harvest Bell)
Jukka Mattila - Guitars, Vocals (ex-Stumm, ex-A.M., Anon Plus)
Lauri Leppänen - Bass
A Kinnunen - Drums


Technical info

Input File: 07 - Hospice.mp3
Channels : 2
Sample Rate : 44100
Precision : 16-bit
Duration : 00:05:59.00 = 15831900 samples = 26925 CDDA sectors
File Size : 14.4M
Bit Rate : 320k
Sample Encoding: MPEG audio (layer I, II or III)
Comments :
Title=Hospice
Artist=Throat
Album=Smile Less
Tracknumber=7
Year=2021-14-05
Genre=Sludge Metal/Noise Rock



[ Hidden Text ]

Posted by: Brann May 18 2021, 20:03:10

Интересная музыка. В работе ритм-секции явно прослеживается стиль классиков "шумного рока" Jesus Lizard.

Powered by Invision Power Board
© Invision Power Services