Printable Version of Topic

Click here to view this topic in its original format

Metal Area - Extreme Music Portal _ Unformat R: _ Det Kätterska Förbund - Lidaverken Del I: Att I Vådeld Förgås (2021)

Posted by: Haunting Jun 20 2021, 08:16:04

http://metalarea.org/images/audiocovers/2021_Jun/acov_tid352297.jpg

*Artist: Det Kätterska Förbund
*Album: Lidaverken Del I: Att I Vådeld Förgås
*Year: 2021
*Genre: Death Industrial
*Country: Sweden
*Format: mp3@CBR320kbps
*Size: 77MB

Tracklist:
1. He Will Fall 6:58
2. Endless Golgatha 4:11
3. Att I Vådeld Förgås 4:06
4. Sacred Grounds 5:08
5. Bar Är Broderlös Rygg 3:05
6. Vid Hälleberg 5:28
7. Vanhelgat Vard Ditt Namn 5:22
******************************
Total playing time: 34:18

https://coldspring.bandcamp.com/album/lidaverken-del-i-att-i-v-deld-f-rg-s-csr265cd-lp

Extended info
Det Kätterska Förbund, consisting of the two giants dominating the Death Industrial world - Thomas Ekelund (Trepaneringsritualen, Dead Letters Spell Out Dead Words) + Henrik Nordvargr Björkk (MZ.412, Pouppée Fabrikk, Folkstorm etc) - has been slowly and methodically working for almost 5 years to finish the first album of this double-headed abomination. Patience richly rewarded.

You can instantly feel the presence of lurking unease as the album slowly opens up a distorted world of familiar sounds and voices, but there is something special about these recordings; the menacing aura that has been created adds new elements to the otherwise rigid tropes of the genre. Punishingly heavy rhythmic tracks, with savage incantations from both Thomas and Nordvargr, gratifyingly familiar to fans of the artists' main projects, are flanked by these death-scarred lamentations (Cold Spring)


Technical info

Input File: 02. Endless Golgatha.mp3
Channels : 2
Sample Rate : 44100
Precision : 16-bit
Duration : 00:04:13.09 = 11161313 samples = 18981.8 CDDA sectors
File Size : 10.2M
Bit Rate : 322k
Sample Encoding: MPEG audio (layer I, II or III)
Comments :
Title=Endless Golgatha
Artist=Det Kätterska Förbund
Album=Lidaverken Del 1: Att I Vådeld Förgås
Tracknumber=02
Year=2021
Genre=Death Industrial



[ Hidden Text ]

Posted by: ent404 Jun 20 2021, 10:27:48

ЦИТАТА(Haunting @ 20th June 2021 - 12:16:04) *
Det Kätterska Förbund, consisting of the two giants dominating the Death Industrial world - Thomas Ekelund (Trepaneringsritualen, Dead Letters Spell Out Dead Words) + Henrik Nordvargr Björkk (MZ.412, Pouppée Fabrikk, Folkstorm etc)

сразу повод пройти мимо.

Posted by: RUSP73 Jun 21 2021, 21:09:33

Как минимум прослушать надо

Posted by: POMAHOB Jun 23 2021, 10:53:20

ЦИТАТА(ent404 @ 20th June 2021 - 12:27:48) *
сразу повод пройти мимо

+1.
Одни из самых расхайпованных проектов на пост-индустриальной сцене, в творчестве которых очень трудно найти что-то интересное.

Powered by Invision Power Board
© Invision Power Services