Printable Version of Topic

Click here to view this topic in its original format

Metal Area - Extreme Music Portal _ Unformat R: _ Jess And The Ancient Ones - Vertigo (2021)

Posted by: Panacea Jul 8 2021, 21:09:55

https://metalarea.org/images/audiocovers/2021_Jul/acov_tid353186.jpg

*Artist: Jess And The Ancient Ones
*Album: Vertigo
*Year: 2021
*Genre: Psychedelic Rock
*Country: Finland
*Format: mp3@CBR320kbps
*Size: 92MB

Tracklist:
1. Burning Of The Velvet Fires 04:39
2. World Paranormal 03:30
3. Talking Board 05:01
4. Love Zombi 04:39
5. Summer Tripping Man 02:56
6. Born To Kill 04:07
7. What's On Your Mind 03:54
8. Strange Earth Illusion 11:34
******************************
Total playing time: 40:20

https://jessandtheancientones.bandcamp.com/album/vertigo

Technical info

Input File: 02 - World Paranormal.mp3
Channels : 2
Sample Rate : 44100
Precision : 16-bit
Duration : 00:03:30.00 = 9261000 samples = 15750 CDDA sectors
File Size : 8.41M
Bit Rate : 320k
Sample Encoding: MPEG audio (layer I, II or III)
Comments :
Title=World Paranormal
Artist=Jess And The Ancient Ones
Album=Vertigo
Tracknumber=2
Year=2021
Genre=Psychedelic Rock



[ Hidden Text ]

Posted by: Amadeus Jul 9 2021, 22:58:18

Фантастически круто, впрочем, как и всегда это случается с Джесс
А Summer Trippin Man будет моим личным гимном отпуска этим летом

Posted by: vosmidesijatye Jul 9 2021, 23:17:44

Ну это зело отличная новость, конечно 20.gif Кстати, у Джесс не так давно вышел сольник, не менее охрененный, чем основной проект -
http://metalarea.org/forum/index.php?showtopic=325856

Posted by: doomvssa Jul 10 2021, 05:25:34

great cover

Posted by: tormoz Jul 10 2021, 07:17:27

о. не самые центровые из винтажмонтажных, но на безптичье, как говорится, и жoпа соловей.

оказывается, альбом с мая в сети болтается.
о - оперативность.

Posted by: tormoz Jul 11 2021, 20:06:41

из всей этой кококультной волны эти ребята, наверно, больше всех стараются соответствовать пресловутому духу той эпохи.
именно поэтому они так безнадежно унылы.

этот альбом, впрочем, парадоксальным образом удался, то есть его можно и даже нужно слушать.
реально хорошая работа, не гениальная, не блестящая, просто хорошая, типа альбомов purson
(ну может чуть похуже, потому что розали сама по себе бесподобна, а жасмин, прямо скажем, на богиню не выгребает).

Posted by: vosmidesijatye Jul 14 2021, 10:19:15

Бодрый и энергичный альбом, вокал выше всяких похвал 20.gif

Powered by Invision Power Board
© Invision Power Services