Printable Version of Topic

Click here to view this topic in its original format

Metal Area - Extreme Music Portal _ Unformat R: _ Ison - Aurora (2021)

Posted by: mirotvorets Jul 15 2021, 10:20:14

https://metalarea.org/images/audiocovers/2021_Jul/acov_tid353432.jpg

*Artist: Ison
*Album: Aurora
*Year: 2021
*Genre: Post-Rock/Ethereal Wave/Shoegaze
*Country: Sweden
*Format: mp3@CBR320kbps
*Size: 160MB

Tracklist:
1. Jupiter 09:24
2. Waves 09:10
3. Aurora 08:25
4. Meridian 11:58
5. Celestial 08:36
6. Retrograde 07:58
7. Penumbra 06:54
8. Aquarian 07:45
******************************
Total playing time: 1:10:10

https://ison444.bandcamp.com/album/aurora

Extended info
ISON is the solo project from multi instrumentalist Daniel Änghede (Venus Principle, ex Crippled Black Phoenix)
The 4th album will be released in 2021 and features guest vocals from Sylvaine, Cammie Gilbert, Gogo Melone & Carline Van Roos amoung others.
The first 3 albums features Heike Langhans of Draconian on vocals & lyrics.


Technical info

Input File: 02. Waves.mp3
Channels : 2
Sample Rate : 44100
Precision : 16-bit
Duration : 00:09:10.22 = 24264878 samples = 41266.8 CDDA sectors
File Size : 22.0M
Bit Rate : 320k
Sample Encoding: MPEG audio (layer I, II or III)
Comments :
Title=Waves
Artist=ISON
Album=Aurora
Tracknumber=2
Year=2021
Genre=Post-Rock



[ Hidden Text ]

Posted by: Kwaad Jul 17 2021, 01:37:23

Смешанные впечатления от альбома. Вроде бы всё ещё как-то цепляет, но стало меньше космоса и больше всякого нью-эйджа с их недомедитациями. Меня не покидает впечатление, что я слушаю какую-то не первой свежести Энигму в гитарной обработке.
Растеряли они атмосферу, в общем smile2.gif

Posted by: Krosis Jul 17 2021, 09:01:08

Всё ещё хорош, но после ухода Хайке уже не то, жаль.

Posted by: Dreamtale Jul 19 2021, 22:42:59

Странно, иногда откровенный пост-рок или вообще эмбиент (не говорю уж про дрим-поп) постят в формат, а тут имхо достаточно дума.

Posted by: Whitefish Aug 4 2021, 20:40:41

ЦИТАТА(Kwaad @ Jul 17 2021, 03:37:23) *
Смешанные впечатления от альбома. Вроде бы всё ещё как-то цепляет, но стало меньше космоса и больше всякого нью-эйджа с их недомедитациями. Меня не покидает впечатление, что я слушаю какую-то не первой свежести Энигму в гитарной обработке.
Растеряли они атмосферу, в общем smile2.gif



Аналогично. Прослушивал несколько раз и понимаю что вот... не накрывает что-то

Posted by: 6666666 Sep 15 2021, 22:09:59

Слушается приятно от начала до конца, но слишком выраженный упор на эмбиент не позволяет оценить альбом выше.

Posted by: Winterdark Sep 15 2021, 23:09:14

ЦИТАТА(Whitefish @ Aug 4 2021, 20:40:41) *
Аналогично. Прослушивал несколько раз и понимаю что вот... не накрывает что-то

Надо дунуть во время прослушивания

Powered by Invision Power Board
© Invision Power Services