Printable Version of Topic

Click here to view this topic in its original format

Metal Area - Extreme Music Portal _ Unformat R: _ Jethro Tull - Shoshana Sleeping [single] (2021)

Posted by: vosmidesijatye Nov 8 2021, 11:15:29

https://metalarea.org/images/audiocovers/2021_Nov/acov_tid357980.jpg

*Artist: Jethro Tull
*Album: Shoshana Sleeping [single]
*Year: 2021
*Genre: Progressive Rock
*Country: United Kingdom
*Format: mp3@CBR320kbps
*Size: 8MB

Tracklist:
1. Shoshana Sleeping 3:41
******************************
Total playing time: 3:41

https://www.youtube.com/watch?v=uPTeqsBd1Ik

Technical info

Input File: 01.Shoshana Sleeping.mp3
Channels : 2
Sample Rate : 44100
Precision : 16-bit
Duration : 00:03:40.64 = 9730312 samples = 16548.1 CDDA sectors
File Size : 9.11M
Bit Rate : 330k
Sample Encoding: MPEG audio (layer I, II or III)
Comments :
Title=Shoshana Sleeping
Artist=Jethro Tull
Album=Single
Tracknumber=1/1
Year=2021
Genre=Progressive Rock, Classic Rock
Discnumber=1/1



[ Hidden Text ]

Posted by: Penetralia Nov 9 2021, 06:54:47

Шошана это кто?

Posted by: Ananiev Nov 9 2021, 08:09:11

о, он еще жив.
акваланг, май френд был неплох.

Posted by: vosmidesijatye Nov 25 2021, 21:50:21

Очень хороший трэк, с нетерпением жду январский альбом pray.gif

Posted by: vosmidesijatye Dec 11 2021, 11:59:09

Ещё один новый сингл


Posted by: vosmidesijatye Jan 13 2022, 10:40:13

И ещё:



Хороший трэк, из всех трех самый крутой - Шошана, этот на втором месте.

С ещё большим нетерпением жду альбом, благо ждать осталось 15 дней)

Powered by Invision Power Board
© Invision Power Services