Printable Version of Topic

Click here to view this topic in its original format

Metal Area - Extreme Music Portal _ Unformat R: _ Long Distance Calling - Eraser (2022)

Posted by: Yarri Aug 26 2022, 12:12:41

https://metalarea.org/images/audiocovers/2022_Aug/acov_tid368661.jpg

*Artist: Long Distance Calling
*Album: Eraser
*Year: 2022
*Genre: Instrumental Post-Rock
*Country: Germany
*Format: mp3@CBR320kbps
*Size: 131MB

Tracklist:
01. Enter: Death Box 1:17
02. Blades 4:39
03. Kamilah 6:57
04. 500 Years 7:31
05. Sloth 7:23
06. Giants Leaving 3:28
07. Blood Honey 10:16
08. Landless King 6:27
09. Eraser 9:18
******************************
Total playing time: 57:16

https://www.youtube.com/watch?v=PI39o-C3uFU
https://www.youtube.com/watch?v=v1cpuv5_Q0I
https://www.youtube.com/watch?v=Itk5cjvy2cE
https://www.youtube.com/watch?v=vX-kFox7giE

Extended info
David Jordan – guitar
Janosch Rathmer – drums
Florian Füntmann – guitar
Jan Hoffmann – bass


Technical info

Input File: 02. Blades.mp3
Channels : 2
Sample Rate : 44100
Precision : 16-bit
Duration : 00:04:38.59 = 12285731 samples = 20894.1 CDDA sectors
File Size : 11.1M
Bit Rate : 320k
Sample Encoding: MPEG audio (layer I, II or III)
Comments :
Title=Blades
Artist=Long Distance Calling
Album=Eraser
Tracknumber=2
Year=2022
Genre=Post Rock



[ Hidden Text ]

Posted by: Ghostb Aug 30 2022, 22:40:40

Почему-то мне ближе всего релизы 2013-2016 гг., где они с вокалом экспериментировали, следующие два довольно стандартны. Послушаем, что здесь.

Posted by: Yarri Aug 30 2022, 22:48:05

Всё так и есть, ранние они - очень крутые.

Posted by: Ghostb Sep 1 2022, 23:41:20

А ведь неплохой альбом, в меру разнообразный как для жанра, использование духовых в нескольких треках очень понравилось. Нужно будет и парочку предыдущих переслушать) Но вокала (хотя бы эпизодического) мне все равно не хватает.

Posted by: KLOP Sep 8 2022, 11:54:42

Довольно динамично для поста. Отличный материал.

Posted by: varnack Oct 14 2022, 17:15:15

Одна из любимых пост-роковых групп. Обязательно к прослушиванию!

Powered by Invision Power Board
© Invision Power Services