Printable Version of Topic

Click here to view this topic in its original format

Metal Area - Extreme Music Portal _ Unformat R: _ Черноплодь - Лад Да Батог [ep] (2023)

Posted by: vosmidesijatye Jun 20 2023, 17:04:38

https://metalarea.org/images/audiocovers/2023_Jun/acov_tid383088.jpg

*Artist: Черноплодь
*Album: Лад Да Батог [ep]
*Year: 2023
*Genre: Ambient/Folk
*Country: Russian Federation
*Format: mp3@CBR320kbps
*Size: 51MB

Tracklist:
1. Лад 11:18
2. Батог 11:01
******************************
Total playing time: 22:19

Technical info

Input File: 01. Лад.mp3
Channels : 2
Sample Rate : 44100
Precision : 16-bit
Duration : 00:11:18.07 = 29903063 samples = 50855.5 CDDA sectors
File Size : 27.7M
Bit Rate : 327k
Sample Encoding: MPEG audio (layer I, II or III)
Comments :
Title=Лад
Artist=Черноплодь
Album=Лад да батог
Tracknumber=01
Year=2023



[ Hidden Text ]

Posted by: vosmidesijatye Jun 20 2023, 18:13:32

Кому мало было, вот ещё навалили атмосферного...

Posted by: judaz Jun 20 2023, 19:05:43

Чересчур лубочно и фоново.

Posted by: Falx Apr 23 2024, 16:39:00

Пожалуйста перезалейте.

Powered by Invision Power Board
© Invision Power Services