Printable Version of Topic

Click here to view this topic in its original format

Metal Area - Extreme Music Portal _ Unformat R: _ Mater Suspiria Vision - Space Necronomicon (2023)

Posted by: applepickingbeam Nov 29 2023, 06:55:53

https://metalarea.org/images/audiocovers/2023_Nov/acov_tid389311.jpg

*Artist: Mater Suspiria Vision
*Album: Space Necronomicon
*Year: 2023
*Genre: Ambient/Experimental
*Country: Germany
*Format: mp3@CBR320kbps
*Size: 94MB

Tracklist:
1. Das Universum bist Du (07:54)
2. Geisterinsel im Weltall (08:16)
3. Ausserk├Ârperliche Erfahrung / Out of Body Experience (05:05)
4. Deep Sleep / Tiefer Schlaf (19:12)
******************************
Total playing time: 40:27

Technical info

Input File: Mater Suspiria Vision - Space Necronomicon - The Album - 03 Ausserk├Ârperliche Erfahrung - Out of Body Experience.mp3
Channels : 2
Sample Rate : 44100
Precision : 16-bit
Duration : 00:05:05.57 = 13475681 samples = 22917.8 CDDA sectors
File Size : 12.3M
Bit Rate : 323k
Sample Encoding: MPEG audio (layer I, II or III)
Comments :
Title=Ausserk├Ârperliche Erfahrung / Out of Body Experience
Artist=Mater Suspiria Vision
Album=Space Necronomicon - The Album
Tracknumber=3
Year=2023



[ Hidden Text ]

Posted by: gena Nov 30 2023, 10:30:04

https://matersuspiriavision.bandcamp.com/album/space-necronomicon-the-album


Powered by Invision Power Board
© Invision Power Services