Printable Version of Topic

Click here to view this topic in its original format

Metal Area - Extreme Music Portal _ Unformat R: _ BlackRain - Hot Rock Time Machine (2024)

Posted by: Necrokilldozer Apr 12 2024, 18:13:01

https://metalarea.org/images/audiocovers/2024_Apr/acov_tid395466.jpg

*Artist: BlackRain
*Album: Hot Rock Time Machine
*Year: 2024
*Genre: Glam/Hard Rock
*Country: France
*Format: mp3@CBR320kbps
*Size: 90MB

Tracklist:
1. Overloaded
2. Baby Shot Me Down
3. Wild, Wild, Wild
4. She's in Love
5. Nobody But You
6. Dancing on Fire
7. Young Blood
8. Shining Down On You
9. Revolution
10. Dead Boy
******************************
Total playing time: 37:57

Extended info
Line - up:

Max 2 - Guitars
Swan - Vocals, Guitars
Heinrich - Bass
Franky Costanza - Drums (Blazing War Machine, Carbonic Fields, Emma-O, Lilith's Black Lotus, Naraka, Les Tambours du Bronx, Vise Versa, ex-Avatar of Hate, ex-Dagoba, ex-Imperial, ex-Outburst, ex-Parallel Minds)



Technical info

Input File: 02. Baby Shot Me Down.mp3
Channels : 2
Sample Rate : 44100
Precision : 16-bit
Duration : 00:03:54.18 = 10327206 samples = 17563.3 CDDA sectors
File Size : 9.46M
Bit Rate : 323k
Sample Encoding: MPEG audio (layer I, II or III)
Comments :
Title=Baby Shot Me Down
Artist=BlackRain
Album=Hot Rock Time Machine
Tracknumber=2
Year=2024
Genre=Glam | Hard Rock



[ Hidden Text ]

Powered by Invision Power Board
© Invision Power Services