Printable Version of Topic

Click here to view this topic in its original format

Metal Area - Extreme Music Portal _ Unformat R: _ Hanging Garden - Citylight Sessions [ep] (2024)

Posted by: Necrokilldozer Apr 19 2024, 17:05:00

https://metalarea.org/images/audiocovers/2024_Apr/acov_tid395909.jpg

*Artist: Hanging Garden
*Album: Citylight Sessions [ep]
*Year: 2024
*Genre: Dark Rock/Atmospheric Synth-Pop
*Country: Finland
*Format: mp3@CBR320kbps
*Size: 55MB

Tracklist:
1. The Journey 03:05
2. The Four Winds 05:21
3. The Garden 05:37
4. The Fireside 04:14
5. The Construct 04:30
******************************
Total playing time: 22:47

https://agoniarecords.https://agoniarecords.bandcamp.com/album/citylight-sessions.com/album/citylight-sessions

Extended info
Line - up:

Mikko Kolari - Guitars (ShamRain)
Jussi Hämäläinen - Guitars, Vocals (backing) (ex-Embraced, Mercury Circle, The Chant)
Nino Hynninen - Keyboards, Piano (ex-Clockwork Spirit, ex-Raakku, ex-Amarantine)
Antti Ruokola - Drums (Approacher, Aryokal, Minutian, ex-Diablerie, ex-Dramatuner)
Toni Hatakka - Vocals (2nd Suicide, ex-Clockwork Spirit, ex-Raakku, ex-Amarantine)
Jussi Kirves - Bass (ex-Endomorphism, ex-Inland)
Riikka Hatakka - Vocals (female)

Finland's melodic gothic-doomsters HANGING GARDEN explore intimate dark rock & atmospheric synth-pop on "Citylight Sessions" live EP on Agonia Records. The mini album features five remade tracks, originally found on "The Garden".

On "Citylight Sessions", the Finnish ensemble unveils a journey into the urban and the ethereal. The distinctive release showcases a series of alternative renditions of five tracks from their critically acclaimed album, 2023's "The Garden"; bringing a fresh, atmospheric perspective to their signature sound.

In an unprecedented move, HANGING GARDEN transforms its sonic landscape by stripping away the familiar cloak of gothic doom metal. Instead, the band embraces a lush symphony of synths, ethereal guitar soundscapes, and drum machines, creating an intimate and hauntingly beautiful experience.

"Citylight Sessions" was recorded during an intimate live performance at the contemporary gallery space of the design company Paja & Bureau. The juxtaposition of HANGING GARDEN's haunting melodies against the backdrop of Paja & Bureau's innovative design space creates an experience that is delightfully distinct from conventional music venues. The entire performance was filmed and is expected to be unveiled in video format alongside the EP.


Technical info

Input File: 04. The Fireside.mp3
Channels : 2
Sample Rate : 48000
Precision : 16-bit
Duration : 00:04:14.74 = 12227472 samples ~ 19105.4 CDDA sectors
File Size : 10.2M
Bit Rate : 320k
Sample Encoding: MPEG audio (layer I, II or III)
Comments :
Title=The Fireside
Artist=Hanging Garden
Album=Citylight Sessions (EP)
Tracknumber=04
Year=2024
Genre=Melodic Doom | Death | Gothic Metal



[ Hidden Text ]

Posted by: AHBAnep Apr 20 2024, 08:00:40

https://agoniarecords.bandcamp.com/album/citylight-sessions

Powered by Invision Power Board
© Invision Power Services