Printable Version of Topic

Click here to view this topic in its original format

Metal Area - Extreme Music Portal _ Unformat R: _ Dool - The Shape Of Fluidity (2024)

Posted by: vosmidesijatye Apr 20 2024, 19:16:41

https://metalarea.org/images/audiocovers/2024_Apr/acov_tid395962.jpg

*Artist: Dool
*Album: The Shape Of Fluidity
*Year: 2024
*Genre: Occult/Dark Rock
*Country: Netherlands
*Format: mp3@CBR320kbps
*Size: 113MB

Tracklist:
1. Venus in Flames 07:06
2. Self-Dissect 05:50
3. The Shape of Fluidity 06:38
4. Currents 02:14
5. Evil in You 03:34
6. House of a Thousand Dreams 04:49
7. Hermagorgon 06:31
8. Hymn for a Memory Lost 07:04
9. The Hand of Creation 05:52
******************************
Total playing time: 49:38

https://dool.bandcamp.com/album/the-shape-of-fluidity

Technical info

Input File: 04 Currents.mp3
Channels : 2
Sample Rate : 44100
Precision : 16-bit
Duration : 00:02:14.54 = 5933258 samples = 10090.6 CDDA sectors
File Size : 5.55M
Bit Rate : 330k
Sample Encoding: MPEG audio (layer I, II or III)
Comments :
Title=Currents
Artist=Dool
Album=The Shape Of Fluidity
Tracknumber=4/9
Year=2024
Genre=Rock
Discnumber=1/1



[ Hidden Text ]

Posted by: vosmidesijatye Apr 21 2024, 10:22:53

Гуд, гуд. 20.gif

Posted by: Dragonballz Apr 21 2024, 10:29:39

О!
Вот это неждачник, предыдущие были просто шикарные!

Posted by: Yarri Apr 21 2024, 10:36:58

Весьма интересно.



Posted by: Vitner Apr 21 2024, 16:36:23

New link please pray.gif

Posted by: Wise.man Apr 28 2024, 19:08:29

Ждал, но впечатление сложное. Очень неровный альбом в целом получился. Поразительное смешение крайне талантливых отрезков с крайне банальными.

В целом, ставка была сделана на утяжеление, местами отдающее чуть ли не галимой альтернативой. Но талант чувствуется даже посреди этого стилевого дерьмища. Больше даже и не знаю, что сказать.

Posted by: Sulphuric Apr 30 2024, 06:27:50

ЦИТАТА(Wise.man @ 28th April 2024 - 23:08:29) *
местами отдающее чуть ли не галимой альтернативой.

Вот есть такой момент, мне периодически вообще Guano Apes мерещилось. Но в целом норм.

Powered by Invision Power Board
© Invision Power Services