Printable Version of Topic

Click here to view this topic in its original format

Metal Area - Extreme Music Portal _ Unformat R: _ Demersal - Demersal (2024)

Posted by: Necrokilldozer May 12 2024, 16:29:53

https://metalarea.org/images/audiocovers/2024_May/acov_tid397022.jpg

*Artist: Demersal
*Album: Demersal
*Year: 2024
*Genre: Post-Hardcore
*Country: Denmark
*Format: flac
*Size: 252MB

Tracklist:
1. Flakkende som tusinde lys 01:17
2. Bedrager 02:02
3. Lys i natten 01:53
4. Something 04:37
5. Will Never Shows 02:00
6. Kunsten at slå tiden ihjel 02:27
7. Androide identiteter 03:38
8. Vakuum 05:01
9. Selvhjælp 03:13
10. Be Kind 02:58
11. Det mindste ingenting 02:36
12. Som et barn mod dit bryst 04:07
******************************
Total playing time: 35:49

https://demersalband.bandcamp.com/album/demersal
https://ripcordrecords.bandcamp.com/album/self-titled

Extended info
Line - up:

Philip - Drums
Jonas - Guitars, Bass
Sebastian - Guitars, Bass, Vocals (ex-Hexis (live))
Viktor - Guitars, Vocals (Telos, ex-Hexis (live))


Technical info

Input File: 12 - Som Et Barn Mod Dit Bryst.flac
Channels : 2
Sample Rate : 44100
Precision : 16-bit
Duration : 00:04:07.67 = 10922100 samples = 18575 CDDA sectors
File Size : 30.9M
Bit Rate : 999k
Sample Encoding: 16-bit FLAC
Comments :
Artist=Demersal
Album=Demersal
Date=2024
Genre=Post-Hardcore | Mathcore
Title=Som Et Barn Mod Dit Bryst
TrackNumber=12
Album Artist=Demersal
Description=



[ Hidden Text ]

Posted by: Ostinato May 25 2024, 11:28:20

Please could you encode a 320 set?

Powered by Invision Power Board
© Invision Power Services