Printable Version of Topic

Click here to view this topic in its original format

Metal Area - Extreme Music Portal _ Lossless _ Sühnopfer - Offertoire (2014)

Posted by: necroscum Feb 4 2015, 11:20:52

https://metalarea.org/images/audiocovers/2015_Feb/acov_tid238888.jpg

*Artist: http://metalarea.org/forum/index.php?showtopic=290774
*Album: Offertoire
*Year: 2014
*Genre: Melodic Black Metal
*Country: France
*Format: mp3@VBR279kbps
*Size: 100MB

Tracklist:
01. Introït - Saints Mystères 07:41
02. Sonnent Les Aurisses (Montmorillon) 05:53
03. Les Légendes De l'Ours 07:12
04. Majestueux Repaire 02:57
05. Chevalier Maudit 08:02
06. La Tour Du Pendu 06:47
07. Messe Des Morts 10:34
******************************
Total playing time: 49:06

https://www.facebook.com/SuhnopferOfficial
http://thoseopposedrecords.bandcamp.com/album/offertoire
https://www.youtube.com/watch?v=xoD0k5sNiaU

Extended info

Input File: 02. Sonnent les Aurisses.mp3
Channels : 2
Sample Rate : 44100
Precision : 16-bit
Duration : 00:05:53.83 = 15603815 samples = 26537.1 CDDA sectors
File Size : 12.7M
Bit Rate : 287k
Sample Encoding: MPEG audio (layer I, II or III)
Comments :
Title=Sonnent les Aurisses
Artist=Suhnopfer
Album=Offertoire
Tracknumber=2
Year=2014
Genre=Black Metal


[ Hidden Text ]

Posted by: neoatheist Feb 4 2015, 14:45:15

Шикарнейший опус! pray.gif

Posted by: hughes Feb 5 2015, 09:51:31

Примитивный "Medieval Black Metal"(Ютюб) с истеричным визгом вместо вокала.

Posted by: pfk505 Apr 4 2016, 07:33:47

[ Hidden Text ]

Posted by: Moonshtook Oct 23 2016, 12:31:21

ЦИТАТА(hughes @ Feb 5 2015, 11:51:31) *
Примитивный "Medieval Black Metal"(Ютюб) с истеричным визгом вместо вокала.

Не такой уже и примитивный. А в лучшем качестве ни у кого нету?

Posted by: Borderline1991 Sep 22 2018, 08:54:32

[ Hidden Text ]

Posted by: satanist666 Apr 6 2019, 12:23:03

Есть на ДаркВорлд'е:
[ Hidden Text ]
Прямая ссылка на Мыло - 113Mb в 320kbps!!!:
[ Hidden Text ]
Added by: CrucifixatioN
metaler.gif

Posted by: rimfrost Apr 6 2019, 13:42:41

ЦИТАТА(satanist666 @ Apr 6 2019, 13:23:03) *
Есть на ДаркВорлд'е:

Прямая ссылка на Мыло - 113Mb в 320kbps!!!:

Added by: CrucifixatioN
metaler.gif

Хотелось бы тебе уважаемый напомнить одно из правил этого форума , о том , что нельзя тут рекламировать другие ресурсы и ссылки с них , как мне помниться .

Posted by: satanist666 Apr 6 2019, 13:54:19

Не парься, все ссылки скрыты!!!
Лучше русский язык подучи!:
"одно из плавил"
bye.gif bye.gif bye.gif
____________________________

QUOTE(rimfrost @ Apr 6 2019, 16:42:41) *
Хотелось бы тебе уважаемый напомнить одно из плавил этого форума , о том , что нельзя тут рекламировать другие ресурсы и ссылки с них , как мне помниться .


Posted by: rimfrost Oct 5 2023, 08:43:19

Перезалейте плз на медиаогонь или мегу!

Posted by: nsk2008 Oct 6 2023, 22:02:48

ЦИТАТА(rimfrost @ Oct 5 2023, 10:43:19) *
Перезалейте плз на медиаогонь или мегу!


[ Hidden Text ]

Powered by Invision Power Board
© Invision Power Services