Printable Version of Topic

Click here to view this topic in its original format

Metal Area - Extreme Music Portal _ Lossless _ The Everscathed - Scars To Bare (2015)

Posted by: Samaritianin May 7 2015, 20:13:08

https://metalarea.org/images/audiocovers/2015_May/acov_tid244847.jpg

*Artist: The Everscathed
*Album: Scars To Bare
*Year: 2015
*Genre: Death Metal
*Country: United States
*Format: mp3@CBR320kbps
*Size: 93MB

Tracklist:
01. Becoming The Executioner
02. Hammers At Dawn
03. The Opposite Reflection
04. Maim The Wandering
05. Bear The Scars
06. Cursing My Name
07. Wave Of Disaster
08. Where I Lie
******************************
Total playing time: 40:45

https://www.youtube.com/watch?v=4Q0FS8PyfGs&feature=youtu.be

Technical info

Input File: 02. Hammers At Dawn.mp3
Channels : 2
Sample Rate : 44100
Precision : 16-bit
Duration : 00:04:54.69 = 12995917 samples = 22101.9 CDDA sectors
File Size : 11.9M
Bit Rate : 324k
Sample Encoding: MPEG audio (layer I, II or III)
Comments :
Title=Hammers At Dawn
Artist=The Everscathed
Album=Scars to Bare
Tracknumber=2/8
Year=2015



[ Hidden Text ]

Posted by: Genuine Thrashiac May 29 2016, 14:45:35

http://theeverscathed.bandcamp.com/album/scars-to-bare

Posted by: dm666 Oct 8 2020, 11:29:27





Format: mp3@320kbps (Lame 3.93.1)
[ Hidden Text ]
Lossless: FLAC (tracks)
[ Hidden Text ]

Powered by Invision Power Board
© Invision Power Services